Help - Search - Members - Calendar
Full Version: Dead And Dripping - Blackened Cerebral Rifts (2023)
Metal Area - Extreme Music Portal > Releases Area / Релизы > Archive
necroscum


*Artist: Dead And Dripping
*Album: Blackened Cerebral Rifts
*Year: 2023
*Genre: Brutal Death Metal
*Country: United States
*Format: mp3@CBR320kbps
*Size: 106MB

Tracklist:
1. Tragic Ascent of Absurdity's Pale Moon 05:03
2. Humanoid Statues Parading Condescending Gestures 03:25
3. Aural Interference with Uncanny Subconscious Frequencies 05:05
4. Infinitely Plummeting into Violet Portals of Delusion 07:50
5. Hopeless Desire for Reprieve 02:31
6. Meticulously Unraveling the Serpentine Consciousness 04:18
7. Kaleidoscopic Visions of Porous Obsidian Eternities 04:11
8. Molecular Degradation upon Warped Onyx Stoves 05:49
9. Hysterical Mirages of Otherworldly Calamity 06:26
******************************
Total playing time: 44:38





Technical info

Input File: 02 - Humanoid Statues Parading Condescending Gestures.mp3
Channels : 2
Sample Rate : 44100
Precision : 16-bit
Duration : 00:03:25.00 = 9040500 samples = 15375 CDDA sectors
File Size : 8.63M
Bit Rate : 337k
Sample Encoding: MPEG audio (layer I, II or III)
Comments :
Title=Humanoid Statues Parading Condescending Gestures
Artist=Dead and Dripping
Album=Blackened Cerebral Rifts
Tracknumber=2
Year=2023-08-11
Genre=Metal
Discnumber=1



[ Hidden Text ]
dns123
Годнота. Ритм-секция качевая и атмосфера мрачно-болезненная. Напомнило Forensic от Mortal Decay
xax
Да, не зря год ждали)) прекрасный альбом
6666666
Много брутала?
dns123
6666666,
34.788%
Strid
Весьма достойный экземпляр! Интересные и сложные структуры композиций на дают заскучать на протяжении всего альбома. Одного раза явно недостаточно, чтобы полностью раскусить эту работу, надо пройтись несколько раз.
Ash_1980
Очешуенный брутал! Облога кайф!
Strid
ЦИТАТА(Ash_1980 @ Aug 12 2023, 22:50:49) *
Облога кайф!

Я смотрю фиолетово-розовые тона и большая заполняемость изображения разными деталями, прям тренд какой-то, последнее время
Morda_Morda
А предыдущие так же хороши, стоит их слушать?
xax
QUOTE(Morda_Morda @ Sep 11 2023, 19:45:13) *
А предыдущие так же хороши, стоит их слушать?

первый дебютник даже еще лучше
vosmidesijatye
Обложка в меру хороша, да.
anotherandomofo
mega is dead.
re-upload please pray.gif
This is a "lo-fi" version of our main content. To view the full version with more information, formatting and images, please click here.
Invision Power Board © 2001-2024 Invision Power Services, Inc.