Help - Search - Members - Calendar
Full Version: Skálmöld - Ýdalir (2023)
Metal Area - Extreme Music Portal > Releases Area / Релизы > Archive
necroscum


*Artist: Skálmöld
*Album: Ýdalir
*Year: 2023
*Genre: Viking/Folk Metal
*Country: Iceland
*Format: mp3@CBR320kbps
*Size: 108MB

Tracklist:
1. Ýr 01:33
2. Ýdalir 05:06
3. Urður 04:26
4. Ratatoskur 04:29
5. Verðandi 06:09
6. Veðurfölnir 04:21
7. Skuld 04:02
8. Níðhöggur 05:03
9. Ullur 10:59
******************************
Total playing time: 46:08







Technical info

Input File: 03. Urður.mp3
Channels : 2
Sample Rate : 44100
Precision : 16-bit
Duration : 00:04:26.49 = 11752165 samples = 19986.7 CDDA sectors
File Size : 11.0M
Bit Rate : 330k
Sample Encoding: MPEG audio (layer I, II or III)
Comments :
Title=Urður
Artist=Skálmöld
Album=Ýdalir
Tracknumber=03/09
Year=2023
Discnumber=1/1



[ Hidden Text ]
Vitald
На фотографии с бэндкампа запечатлена компашка дрищей, очкариков и обсосов. ВикЫнги, блт crazy.gif 1488.gif
Когда уже в малонаселённой толерастнутой карликовой Исландии переведутся митолицты? Они ими рождаются что-ли? true_black.gif 1488.gif Ладно,,послушаю. Состав группца не маленький, музыкальных инструментов задействовано на максималках - может чего путного и наиграли...
valash
Thyrfing, Mithotyn 90-х- как референс.
Слушабельно. Но оригиналы таки лучше.
isvili
ЦИТАТА(Vitald @ Aug 17 2023, 20:38:47) *
Когда уже в малонаселённой толерастнутой карликовой Исландии переведутся митолицты?

Толерантность исландцев сам надеюсь проверял? Не просто так же языком чешешь? 1488.gif
Vitald
ЦИТАТА(isvili @ Aug 19 2023, 14:32:38) *
Толерантность исландцев сам надеюсь проверял? Не просто так же языком чешешь? 1488.gif


Не просто чешу. Хрена проверять? Как и вся гейропа - на этой волне, а кто не в тренде - маргиналы конечно жежЪ, блт.

Стафф - нудное гвно на вторяках, сравнения с вышеприведенными группами не выдерживает.
trueandevil
QUOTE(Vitald @ Aug 20 2023, 19:29:30) *
Не просто чешу. Хрена проверять? Как и вся гейропа - на этой волне, а кто не в тренде - маргиналы конечно жежЪ, блт.

Стафф - нудное гвно на вторяках, сравнения с вышеприведенными группами не выдерживает.


Скрепыш?
Vitald
гвносоратники спасибок накидывают, лишь бы пригорал пердак не в тему. true_black.gif 1488.gif
cesar
ЦИТАТА(Vitald @ Aug 17 2023, 20:38:47) *
На фотографии с бэндкампа запечатлена компашка дрищей, очкариков и обсосов. ВикЫнги, блт crazy.gif 1488.gif

Были бы другие - ты сказал бы пузаны, гопота и мажоры? bye.gif
Это метод восьмидесятого - пырить что угодно, кроме самой музыки, ну в край - куски второго и шестого треков crazy.gif crazy.gif crazy.gif

И о музыке - мне не понравилось.
Слишком ровно и потому скучновато
6666666
ЦИТАТА(cesar @ 21st August 2023 - 17:33:13) *
Были бы другие - ты сказал бы пузаны, гопота и мажоры? bye.gif
Это метод восьмидесятого - пырить что угодно, кроме самой музыки, ну в край - куски второго и шестого треков

Шаришь.
cesar
ЦИТАТА(6666666 @ Aug 23 2023, 08:08:26) *
Шаришь.

Паришь.
Ulfgrimm
Reupload, please?
This is a "lo-fi" version of our main content. To view the full version with more information, formatting and images, please click here.
Invision Power Board © 2001-2024 Invision Power Services, Inc.