Help - Search - Members - Calendar
Full Version: Asagraum - Impure Fire [single] (2023)
Metal Area - Extreme Music Portal > Releases Area / Релизы > Archive
Kaphiel


*Artist: Asagraum
*Album: Impure Fire [single]
*Year: 2023
*Genre: Black Metal
*Country: Netherlands
*Format: mp3@CBR320kbps
*Size: 12MB

Tracklist:
01. Impure Fire 05:10
******************************
Total playing time: 5:10

Youtube

Extended info
Track from the upcoming album 'Veil of Death, Ruptured'. To be released by Edged Circle Productions (CD/LP/MC/Digital) on October 20th, 2023.


Technical info

Input File: 01 - Impure Fire.mp3
Channels : 2
Sample Rate : 44100
Precision : 16-bit
Duration : 00:05:10.00 = 13671000 samples = 23250 CDDA sectors
File Size : 12.5M
Bit Rate : 324k
Sample Encoding: MPEG audio (layer I, II or III)
Comments :
Title=Impure Fire
Artist=Asagraum
Album=Impure Fire (Single)
Tracknumber=01/01
Year=2023-08-11
Genre=Black Metal



[ Hidden Text ]
vovenom
На родину вернулась?
Vidyadharov
ЦИТАТА(vovenom @ Aug 31 2023, 18:12:52) *
На родину вернулась?

Из Голландии в Нидерланды. :)
This is a "lo-fi" version of our main content. To view the full version with more information, formatting and images, please click here.
Invision Power Board © 2001-2024 Invision Power Services, Inc.