Help - Search - Members - Calendar
Full Version: Fossilization - Leprous Daylight (2023)
Metal Area - Extreme Music Portal > Releases Area / Релизы > Archive
Samaritianin


*Artist: Fossilization
*Album: Leprous Daylight
*Year: 2023
*Genre: Death Metal
*Country: Brazil
*Format: mp3@CBR320kbps
*Size: 85MB

Tracklist:
1. Archæan Gateway 00:55
2. Once Was God 04:59
3. Oracle of Reversion 05:02
4. At the Heart of the Nest 04:24
5. Leprous Daylight 05:03
6. The Night Spoke the Tongue of Flames 04:56
7. Eon 05:40
8. Wrought in the Abyss 05:36
******************************
Total playing time: 36:35




Extended info
V Bass, Guitars, Vocals (2020-present)
See also: Jupiterian, ex-Inerthe, ex-The Black Coffins
P Drums (2020-present)
See also: Jupiterian, Mortal Embodiment, Riffcoven, ex-Horns of Venus, Shyy, ex-Corporate Death, ex-Infamous Glory (live)


Technical info

Input File: 05 - Leprous Daylight.mp3
Channels : 2
Sample Rate : 44100
Precision : 16-bit
Duration : 00:05:03.17 = 13369841 samples = 22737.8 CDDA sectors
File Size : 12.3M
Bit Rate : 324k
Sample Encoding: MPEG audio (layer I, II or III)
Comments :
Title=Leprous Daylight
Artist=Fossilization
Album=Leprous Daylight
Tracknumber=5/8
Year=2023
Genre=9
Discnumber=1/1



[ Hidden Text ]
mirotvorets
После воняющего недрами и дышавшим перегноем первого альбома-миньона и двух песен на сплите были основания получить именно Death Metal.
Завышенные ожидания приводят горьких фантазеров в неожиданные разочарования. Фонтан нечистот обессилил. Не тот напор ни в звуке, получившем процессорное санирование канализационных сетей, ни в наполнении, ставшем благодушным, полных каких-то банальных мелодий. Не тот случай, где это мне нужно. Заявленные претензии FFO Portal необоснованны. Какой там Портал...какой-то Напалм Дет смузи-метал. Так прямо мишки Барни и просятся выпрыгнуть из розовых сердечек.
Фо
Какое то страшное несчастье случилось во Бразилиях. Вероятно, коллектив покусали стада диких обезьян. Иного объяснения столь прискорбной трансформации придумать тяжело.
Отвратный плоский звук доносит до нас какие то банальные осумбуривания и потасканную мимикрию под уходящие в тираж тенденции.
А ведь была же морда своего лица...
Гoвно.
Samaritianin
ЦИТАТА(Фо @ 8th September 2023 - 22:08:27) *
Гoвно

причем окаменелое 1488.gif
judaz
Заипись.
Как тут можно было услышать напалм дэт - ума не приложу.
Вероятно, по ссылке случайно скачался какой-то другой альбом.
mirotvorets
За похожесть на напалм дет ниче не скажу, вроде не про это речь шла. Вместо размотанных на несколько предложений абстрактных грузовых мелодий, получили короткие в одну фразу трели, слышанные сто раз у других.

Да уж, провал такой от метафоричного смерть метала к рутинной примитивщине, а всего то убрали дум составляющую.
judaz
ЦИТАТА(mirotvorets @ Sep 9 2023, 09:23:53) *
а всего то убрали дум составляющую.

Это хорошо. Теперь ранние работы точно не буду слушать.
mirotvorets
FLAC
[ Hidden Text ]
igore2911
хороший олдскул
mirotvorets
Насколько хороший, разберут историки. А то что - одскул, эт точно хорошо послушали. В первой вещи - из открывашки Bolt Thrower' 91 безошибочно узнаваемый кусок, уважаемый оммаж.
Daale
ЦИТАТА(mirotvorets @ 9th September 2023 - 12:23:53) *
а всего то убрали дум составляющую.


Не сказал бы, что он полностью испарился. А вот диссонансы странными показались.

Так или иначе, если смотреть картину в целом, не самое плохое. Но ранний материал опеределенно, когда решил столкнуть лбами, куда годней
Mencae77
Another solid album, fucking rulez alkash.gif
Chasm
Альбом - давящая своей массой плита. Почерк группы виден невооружённым ухом. Дума стало сильно поменьше, да. Звук стал не сырым, с чем ушла часть шарма и атмосферы. Но мрака тут целый вагон и маленькая тележка. Мне всё нравится.
Froze
В топ года однозначно! Не хуже предыдущей эпихи, а может даже и лучше.
This is a "lo-fi" version of our main content. To view the full version with more information, formatting and images, please click here.
Invision Power Board © 2001-2024 Invision Power Services, Inc.