Help - Search - Members - Calendar
Full Version: Zanak'adala - Betrayed By Entertainment (2022)
Metal Area - Extreme Music Portal > Releases Area / Релизы > Archive
Samaritianin


*Artist: Zanak'adala
*Album: Betrayed By Entertainment
*Year: 2022
*Genre: Thrash Metal
*Country: Madagascar
*Format: mp3@CBR320kbps
*Size: 95MB

Tracklist:
1. Zanaka Mapar 04:23
2. Foza 04:03
3. Feo Miantso 04:26
4. Mifohaza Ry Adala 04:40
5. Betrayed by Entertainment 05:20
6. Maty Zanahary 04:35
7. God's Talk 04:24
8. Maharikoriko 04:29
9. Nilaozany 04:42
******************************
Total playing time: 41:02



Extended info
Vony Ratahiriniaina Drums
Dylan Rabaraona Guitars
Robert Razanajatovo Guitars
Mamy Harison Vocals, Bass (2012-present)



Technical info

Input File: 05 - Betrayed By Entertainment.mp3
Channels : 2
Sample Rate : 44100
Precision : 16-bit
Duration : 00:05:20.00 = 14112000 samples = 24000 CDDA sectors
File Size : 12.9M
Bit Rate : 324k
Sample Encoding: MPEG audio (layer I, II or III)
Comments :
Title=Betrayed By Entertainment
Artist=Zanak'adala
Album=Betrayed By Entertainment
Tracknumber=5
Year=2022-11-03
Genre=オルタナティヴ
Discnumber=1



[ Hidden Text ]
avather
Пингвины замутили альбом
AHBAnep
ЦИТАТА(avather @ Sep 11 2023, 11:10:06) *
Пингвины замутили альбом

nono.gif лемуры
This is a "lo-fi" version of our main content. To view the full version with more information, formatting and images, please click here.
Invision Power Board © 2001-2024 Invision Power Services, Inc.