Help - Search - Members - Calendar
Full Version: Marthyria - Sacrifice (2023)
Metal Area - Extreme Music Portal > Releases Area / Релизы > Archive
Samaritianin


*Artist: Marthyria
*Album: Sacrifice
*Year: 2023
*Genre: Thrash/Heavy Metal
*Country: Brazil
*Format: mp3@CBR320kbps
*Size: 119MB

Tracklist:
01. At the Dawn of the Third Day 05:47
02. Mercy on Me 05:17
03. My Shepherd 06:05
04. Drastic Changes 04:07
05. Nothing to Lose 05:00
06. Sacrifice 06:20
07. Deliver Us from Evil 04:53
08. A Look into Eternity 03:48
09. Increase 06:05
10. Unfading Rose 04:54
******************************
Total playing time: 52:16



Extended info
Vocals & guitars: Juan José Léniz
Bass: Rodrigo Aranda
Drums: Diego Letelier


Technical info

Input File: 07 - Deliver Us from Evil.mp3
Channels : 2
Sample Rate : 44100
Precision : 16-bit
Duration : 00:04:52.80 = 12912436 samples = 21959.9 CDDA sectors
File Size : 11.7M
Bit Rate : 320k
Sample Encoding: MPEG audio (layer I, II or III)
Comments :
Title=Deliver Us from Evil
Artist=Marthyria
Album=Sacrifice
Tracknumber=7
Year=2023



[ Hidden Text ]
Andrew
This is a "lo-fi" version of our main content. To view the full version with more information, formatting and images, please click here.
Invision Power Board © 2001-2024 Invision Power Services, Inc.