Help - Search - Members - Calendar
Full Version: Flagrum - Innocent Blood (2023)
Metal Area - Extreme Music Portal > Releases Area / Релизы > Archive
Samaritianin


*Artist: Flagrum
*Album: Innocent Blood
*Year: 2023
*Genre: Thrash/Death Metal
*Country: Ecuador
*Format: mp3@CBR320kbps
*Size: 68MB

Tracklist:
1. Intro 01:04
2. Agony of Souls 04:19
3. Putrefaction 03:38
4. The Call of Death 03:34
5. Flagellation 05:03
6. Annihilated Identity 03:38
7. With My Last Breath 04:06
8. Suicidal War 04:00
******************************
Total playing time: 29:22




Extended info
FLAC-Rip
Carlos Yépez Drums
Gabriel Yépez Guitars
José Antonio Yépez Bass
Alex Herrera Vocals


Technical info

Input File: 05 - Flagellation.mp3
Channels : 2
Sample Rate : 44100
Precision : 16-bit
Duration : 00:05:03.00 = 13362300 samples = 22725 CDDA sectors
File Size : 12.3M
Bit Rate : 323k
Sample Encoding: MPEG audio (layer I, II or III)
Comments :
Title=Flagellation
Artist=Flagrum
Album=Innocent Blood
Tracknumber=5
Year=2023-09-15
Genre=ロック
Discnumber=1



[ Hidden Text ]
Samaritianin
FLAC (Tracks) 213 mb
[ Hidden Text ]
Andrew
terrano2006
Т-34-85 на обложке вызывает нервный смех. Сюр какой-то.
ВС Лаоса конечно еще его используют, но и то уже дарят как сувениры, в РФ например.
П.С. Сабж - детство какое-то.
Konungr
ЦИТАТА(terrano2006 @ Sep 18 2023, 19:41:59) *
Т-34-85 на обложке вызывает нервный смех. Сюр какой-то.
ВС Лаоса конечно еще его используют, но и то уже дарят как сувениры, в РФ например.
П.С. Сабж - детство какое-то.

А там еще три перевернутых Петьки!
This is a "lo-fi" version of our main content. To view the full version with more information, formatting and images, please click here.
Invision Power Board © 2001-2024 Invision Power Services, Inc.