Help - Search - Members - Calendar
Full Version: Sviatibor - Live Rehearsal 2023 [demo] (2023)
Metal Area - Extreme Music Portal > Releases Area / Релизы > Archive
Necrokilldozer


*Artist: Sviatibor
*Album: Live Rehearsal 2023 [demo]
*Year: 2023
*Genre: Pagan Black Metal
*Country: France
*Format: mp3@CBR320kbps
*Size: 101MB

Tracklist:
1. La Cité d'Arkona 08:24
2. Armies of a Luminous Eye 05:26
3. Above Blackened Skies 06:23
4. Perdu à Travers les Branches du Temps 06:07
5. Yore Resonating 05:44
6. La Lumière Ancestrale 01:59
7. L'Étoile 08:17
******************************
Total playing time: 42:20



Extended info
Line - up:

Léo Appaix - Drums
Thomas Hornstein - Vocals, All instruments (Nervengeist, ex-Tempt Fate)

Raw, intimate, flawed, powerful and authentic. 3 mics in a room, zero edit and tons of relentless energy : dive into the band's intimacy with this live rehearsal session, recorded in August 2023.


Technical info

Input File: 03. Above Blackened Skies (Live rehearsal 2023).mp3
Channels : 2
Sample Rate : 44100
Precision : 16-bit
Duration : 00:06:23.68 = 16920464 samples = 28776.3 CDDA sectors
File Size : 15.4M
Bit Rate : 321k
Sample Encoding: MPEG audio (layer I, II or III)
Comments :
Title=Above Blackened Skies (Live rehearsal 2023)
Artist=Sviatibor
Album=Live rehearsal 2023 (Demo)
Tracknumber=3
Year=2023
Genre=Pagan Black Metal | Ambient



[ Hidden Text ]
Vitald
Неплохой лайв, жаль что звук такой корявый, им по статусу не положено в подвале записывать даже демки. Ну ещё отчётливо выраженный атмоблэк в вокале отталкивает, в инструментальной части также немало его и он не напрягает так.
This is a "lo-fi" version of our main content. To view the full version with more information, formatting and images, please click here.
Invision Power Board © 2001-2024 Invision Power Services, Inc.