*Artist: Eczema
*Album: Visceral 1. La Mala Conformidad
*Year: 2023
*Genre: Progressive/Technical Death Metal
*Country: Spain
*Format: mp3@CBR320kbps
*Size: 65MB

Tracklist:
1.Por la culpa 05:26
2.Deseé tu muerte 05:51
3.Mi gran mal 06:15
4.Dentro miré 04:11
5.Oración 05:19
******************************
Total playing time: 27:02



Technical info

Input File: 4.Dentro miré.mp3
Channels : 2
Sample Rate : 44100
Precision : 16-bit
Duration : 00:04:11.29 = 11081801 samples = 18846.6 CDDA sectors
File Size : 10.7M
Bit Rate : 341k
Sample Encoding: MPEG audio (layer I, II or III)
Comments :
Title=Dentro miré
Artist=Eczema
Album=VISCERAL 1. La mala conformidad
Tracknumber=4/5
Year=2023
Discnumber=1/1



[ Hidden Text ]