*Artist: Asmodeus
*Album: Nocturnal Manifestation Of Dracula
*Year: 2023
*Genre: Black Metal
*Country: Spain
*Format: mp3@CBR320kbps
*Size: 109MB

Tracklist:
1.Isbiliyya 05:28
2.Incantation 03:51
3.Vampyre 03:23
4.Vampyres of Transylvania 03:32
5.War in Iberia 03:21
6.Isbiliyya II 07:34
7.Nocturnal Manifestation of Dracula 03:30
8.Maleficient Vampyrical Nights 03:37
9.Night of Hunger 04:42
10.The Tale from a Vampyre's Love 03:20
11.Nosferatu Waltz 04:35
******************************
Total playing time: 46:53



Technical info

Input File: 2.Incantation.mp3
Channels : 2
Sample Rate : 44100
Precision : 16-bit
Duration : 00:03:51.38 = 10203946 samples = 17353.6 CDDA sectors
File Size : 9.58M
Bit Rate : 331k
Sample Encoding: MPEG audio (layer I, II or III)
Comments :
Title=Incantation
Artist=Asmodeus
Album=Nocturnal Manifestation of Dracula
Tracknumber=2/11
Year=2023
Discnumber=1/1



[ Hidden Text ]