Help - Search - Members - Calendar
Full Version: Drott - Troll (2023)
Metal Area - Extreme Music Portal > Releases Area / Релизы > New Releases > Unformat R:
as71


*Artist: Drott
*Album: Troll
*Year: 2023
*Genre: Progressive/Psychedelic Rock/Post-Rock
*Country: Norway
*Format: mp3@CBR320kbps
*Size: 107MB

Tracklist:
01. Troldhaug 03:02
02. Allting 02:49
03. Våkenatt 05:39
04. Til Stein 05:01
05. Det Ser 03:22
06. Solskodde 03:19
07. Mara 01:24
08. Troll 03:23
09. Nattas Blot 04:46
10. Sabbat 04:25
11. Fornjots Born 04:41
12. Grotten 01:55
13. Natt 02:35
******************************
Total playing time: 46:22



Extended info
Arve Isdal (Enslaved)
Ivar Thormodsæter (Ulver)
Matias Monsen
-------------------------------
guest musicians:
Kristian Espedal - vocals
Lindy Fay Hella - vocals
Herbrand Larsen - vocals


Technical info

Input File: 02 - Allting.mp3
Channels : 2
Sample Rate : 44100
Precision : 16-bit
Duration : 00:02:49.34 = 7467806 samples = 12700.4 CDDA sectors
File Size : 6.78M
Bit Rate : 320k
Sample Encoding: MPEG audio (layer I, II or III)
Comments :
Title=Allting
Artist=DROTT
Album=Troll
Tracknumber=02
Year=2023
Genre=Progressive/Psychedelic Rock/Post-Rock



[ Hidden Text ]
Nattfodd
Хорошо 20.gif
Infidel
И правда, неплохо hmm.gif
Terrorizer
... на саундтрек очень похоже. Только кина не будет ...
Old Vyaine
Не впечатлило.
This is a "lo-fi" version of our main content. To view the full version with more information, formatting and images, please click here.
Invision Power Board © 2001-2024 Invision Power Services, Inc.