*Artist: Wicked Maraya
*Album: Chapters [ep]
*Year: 2023
*Genre: Progressive Heavy/Power Metal
*Country: United States
*Format: mp3@CBR320kbps
*Size: 46MB

Tracklist:
1.Chapter I 03:50
2.Chapter II 04:05
3.Chapter III 04:00
4.Chapter IV 04:14
5.Chapter V 03:27
******************************
Total playing time: 19:36



Technical info

Input File: 1.Chapter I.mp3
Channels : 2
Sample Rate : 44100
Precision : 16-bit
Duration : 00:03:50.76 = 10176296 samples = 17306.6 CDDA sectors
File Size : 9.51M
Bit Rate : 330k
Sample Encoding: MPEG audio (layer I, II or III)
Comments :
Title=Chapter I
Artist=Wicked Maraya
Album=Chapters
Tracknumber=1/5
Year=2023
Discnumber=1/1



[ Hidden Text ]