*Artist: Hringboga
*Album: Flesh Is Weak [demo]
*Year: 2023
*Genre: Raw Black Metal
*Country: United States
*Format: mp3@CBR320kbps
*Size: 44MB

Tracklist:
1. Flesh Is Weak 06:06
2. Soul Wrought of Iron 01:42
3. Deep in the Devil's Den (Samuel) 04:12
4. The Impure Bog (Free) 06:58
******************************
Total playing time: 18:58




Technical info

Input File: Hringboga - Flesh Is Weak - 02 Soul Wrought of Iron.mp3
Channels : 2
Sample Rate : 44100
Precision : 16-bit
Duration : 00:01:42.07 = 4501111 samples = 7654.95 CDDA sectors
File Size : 4.23M
Bit Rate : 331k
Sample Encoding: MPEG audio (layer I, II or III)
Comments :
Title=Soul Wrought of Iron
Artist=Hringboga
Album=Flesh Is Weak
Tracknumber=2
Year=2023



[ Hidden Text ]