Help - Search - Members - Calendar
Full Version: Ritual Of Descent - Death By Toll [ep] (2023)
Metal Area - Extreme Music Portal > Releases Area / Релизы > Archive
kefka


*Artist: Ritual Of Descent
*Album: Death By Toll [ep]
*Year: 2023
*Genre: Technical/Brutal Death Metal
*Country: United States
*Format: mp3@CBR320kbps
*Size: 53MB

Tracklist:
1.Aftermath of Disease 04:53
2.Pestilence of Carnage 03:46
3.Immolation 03:55
4.Virulent 04:13
5.Scorched Earth 06:03
******************************
Total playing time: 22:50



Technical info

Input File: 2.Pestilence of Carnage.mp3
Channels : 2
Sample Rate : 44100
Precision : 16-bit
Duration : 00:03:46.81 = 10002321 samples = 17010.8 CDDA sectors
File Size : 9.43M
Bit Rate : 333k
Sample Encoding: MPEG audio (layer I, II or III)
Comments :
Title=Pestilence of Carnage
Artist=Ritual of Descent
Album=Death By Toll
Tracknumber=2/5
Year=2023
Discnumber=1/1



[ Hidden Text ]
cesar
дэткор
Victim of fate
чутка жира не хватает
This is a "lo-fi" version of our main content. To view the full version with more information, formatting and images, please click here.
Invision Power Board © 2001-2024 Invision Power Services, Inc.