*Artist: Mh Ov
*Album: The Five Ages Of The Universe [ep]
*Year: 2021
*Genre: Atmospheric Black Metal
*Country: Greece
*Format: mp3@CBR320kbps
*Size: 64MB

Tracklist:
1. The Primordial Era 06:28
2. The Stelliferous Era 04:16
3. The Degenerate Era 03:55
4. The Black Hole Era 04:12
5. The Dark Era 04:00
6. Τhe Physics of Eternity 04:57
******************************
Total playing time: 27:48



Technical info

Input File: 01 The Primordial Era.mp3
Channels : 2
Sample Rate : 44100
Precision : 16-bit
Duration : 00:06:28.88 = 17149608 samples = 29166 CDDA sectors
File Size : 15.7M
Bit Rate : 323k
Sample Encoding: MPEG audio (layer I, II or III)
Comments :
Title=The Primordial Era
Artist=MH OV
Album=The Five Ages of the Universe
Tracknumber=1
Year=2021



[ Hidden Text ]