Help - Search - Members - Calendar
Full Version: Zwielicht - The Aphotic Embrace (2024)
Metal Area - Extreme Music Portal > Releases Area / Релизы > Archive
kefka


*Artist: Zwielicht
*Album: The Aphotic Embrace
*Year: 2024
*Genre: Black Metal
*Country: Germany
*Format: mp3@CBR320kbps
*Size: 111MB

Tracklist:
01.Flames Of Disobedience 01:54
02.Stench Of Rotten Deities 10:29
03.The Fallen Abbey 08:41
04.Transcendental Salvation 03:05
05.Babalon 05:52
06.Aphotic Embrace 09:16
07.Twilight Temple 07:54
******************************
Total playing time: 47:11



Technical info

Input File: 5.Babalon.mp3
Channels : 2
Sample Rate : 44100
Precision : 16-bit
Duration : 00:05:52.55 = 15547235 samples = 26440.9 CDDA sectors
File Size : 14.6M
Bit Rate : 331k
Sample Encoding: MPEG audio (layer I, II or III)
Comments :
Title=Babalon
Artist=Zwielicht
Album=The Aphotic Embrace
Tracknumber=5/7
Year=2024
Discnumber=1/1



[ Hidden Text ]
isvili
Добротная немчура 20.gif
HelenVaughan
Хороши, несмотря на не самую приметную обложку. Особенно понравились длинные композиции.
This is a "lo-fi" version of our main content. To view the full version with more information, formatting and images, please click here.
Invision Power Board © 2001-2024 Invision Power Services, Inc.