Help - Search - Members - Calendar
Full Version: Praise - Sacrosanct Cynicism (2024)
Metal Area - Extreme Music Portal > Releases Area / Релизы > Archive
Necrokilldozer


*Artist: Praise
*Album: Sacrosanct Cynicism
*Year: 2024
*Genre: Death Metal/Grindcore
*Country: Finland
*Format: mp3@CBR320kbps
*Size: 56MB

Tracklist:
1. Poison Spitter 01:57
2. Wrench Thrower 00:40
3. Bescherung 00:35
4. Son of God Sonogram 02:14
5. Hate Blossoms in Strange Colors 00:33
6. A Coin Tossed 00:50
7. Love Shifts Leaders Through Centuries 00:18
8. Endurance and Transition 02:11
9. Cloven Hoof Shoes 03:46
10. Panoptic Cop Behavior 00:53
11. Swords to Plowhshares 01:00
12. Futile Race 01:56
13. Delayed Choice Quantum Eraser 01:22
14. Anthropomorphisms 05:02
******************************
Total playing time: 23:17



Extended info
Line - up:

Joona - Bass
Santtu - Drums (Frogskin, Unearthly Rites, Urban Disposal, ex-Hexhammer)
Simo - Guitars (Bolt Cross, Dome Runner, Fuck-Ushima, Igniter, Unearthly Rites, ex-Decibel Hammer, ex-Paleskin, ex-Nuclear Omnicide)
Lassi - Vocals


Technical info

Input File: 11. Swords to Plowshares.mp3
Channels : 2
Sample Rate : 44100
Precision : 16-bit
Duration : 00:01:00.56 = 2670608 samples = 4541.85 CDDA sectors
File Size : 2.42M
Bit Rate : 320k
Sample Encoding: MPEG audio (layer I, II or III)
Comments :
Title=Swords to Plowshares
Artist=Praise
Album=Sacrosanct Cynicism
Tracknumber=11
Year=2024
Genre=Death Metal | Grindcore



[ Hidden Text ]
Hell_Is_Here
[ Hidden Text ]
This is a "lo-fi" version of our main content. To view the full version with more information, formatting and images, please click here.
Invision Power Board © 2001-2024 Invision Power Services, Inc.