*Artist: Inertzia
*Album: Capitulate
*Year: 2024
*Genre: Groove Metal
*Country: France
*Format: mp3@CBR320kbps
*Size: 87MB

Tracklist:
1.Intro 01:25
2.Outlaw Time 03:53
3.Burn 04:21
4.Alone 03:25
5.Confess 05:11
6.Inertzia 05:09
7.Scam at the Heigh 04:15
8.Capitulate 03:05
9.Breath 06:20
******************************
Total playing time: 37:04



Technical info

Input File: 2.Outlaw Time.mp3
Channels : 2
Sample Rate : 44100
Precision : 16-bit
Duration : 00:03:53.42 = 10293822 samples = 17506.5 CDDA sectors
File Size : 9.91M
Bit Rate : 340k
Sample Encoding: MPEG audio (layer I, II or III)
Comments :
Title=Outlaw Time
Artist=Inertzia
Album=Capitulate
Tracknumber=2/9
Year=2024
Discnumber=1/1



[ Hidden Text ]