Help - Search - Members - Calendar
Full Version: Greyhawk - Thunderheart (2024)
Metal Area - Extreme Music Portal > Releases Area / Релизы > New Releases
Samaritianin


*Artist: Greyhawk
*Album: Thunderheart
*Year: 2024
*Genre: Heavy/Power Metal
*Country: United States
*Format: mp3@CBR320kbps
*Size: 103MB

Tracklist:
1. Spellstone 04:07
2. Ombria (City of the Night) 05:14
3. Thunderheart 04:19
4. Rock & Roll City 04:26
5. Steadfast 06:34
6. Sacrifice of Steel 04:44
7. The Last Mile 05:53
8. Back in the Fight 03:52
9. The Golden Candle 05:29
******************************
Total playing time: 44:38




Extended info
FLAC-Rip
Darin Wall Bass
Jesse Berlin Guitars
Nate Butler Drums
Rev Taylor Vocals
Rob Steinway Guitars



Technical info

Input File: 07 - The Last Mile.mp3
Channels : 2
Sample Rate : 44100
Precision : 16-bit
Duration : 00:05:53.87 = 15605843 samples = 26540.5 CDDA sectors
File Size : 14.2M
Bit Rate : 322k
Sample Encoding: MPEG audio (layer I, II or III)
Comments :
Title=The Last Mile
Artist=Greyhawk
Album=Thunderheart
Tracknumber=7/9
Year=2024
Discnumber=1/1



[ Hidden Text ]
Витон
СПАСИБО!!!
avather
Ох, как же офигенно-то 20.gif 20.gif 20.gif
This is a "lo-fi" version of our main content. To view the full version with more information, formatting and images, please click here.
Invision Power Board © 2001-2024 Invision Power Services, Inc.