*Artist: Vargålder
*Album: Östgötisk Hednisk Svartmetall [demo]
*Year: 2021
*Genre: Black Metal
*Country: Sweden
*Format: mp3@CBR320kbps
*Size: 52MB

Tracklist:
1.Offerberget 05:30
2.Skogens Illdåd / Mörkrets Ofärd 03:54
3.Dundraren 04:30
4.Hamnskifte 02:13
5.Hult & Högar 05:24
******************************
Total playing time: 21:31




Technical info

Input File: 02 Skogens Illdåd - Mörkrets Ofärd.mp3
Channels : 2
Sample Rate : 44100
Precision : 16-bit
Duration : 00:03:54.39 = 10336423 samples = 17579 CDDA sectors
File Size : 9.44M
Bit Rate : 322k
Sample Encoding: MPEG audio (layer I, II or III)
Comments :
Title=Skogens Illdåd / Mörkrets Ofärd
Artist=Vargålder
Album=Östgötisk Hednisk Svartmetall
Tracknumber=2/5
Year=2021
Genre=Black Metal
Discnumber=1/1



[ Hidden Text ]