Help - Search - Members - Calendar
Full Version: Valpur - Verses Of Vile And Grim [ep] (2023)
Metal Area - Extreme Music Portal > Releases Area / Релизы > New Releases
smysl


*Artist: Valpur
*Album: Verses Of Vile And Grim [ep]
*Year: 2023
*Genre: Black/Death Metal
*Country: Finland
*Format: mp3@CBR320kbps
*Size: 46MB

Tracklist:
1.The Putrid Icon of Pestilence 04:31
2.Nuclear Seraphim 03:30
3.Conjuration 04:45
4.Lycanthrophian Passage 04:11
******************************
Total playing time: 16:57




Technical info

Input File: 01 The Putrid Icon of Pestilence.mp3
Channels : 2
Sample Rate : 44100
Precision : 16-bit
Duration : 00:04:31.20 = 11959700 samples = 20339.6 CDDA sectors
File Size : 10.9M
Bit Rate : 322k
Sample Encoding: MPEG audio (layer I, II or III)
Comments :
Title=The Putrid Icon of Pestilence
Artist=Valpur
Album=Verses of Vile and Grim
Tracknumber=1/4
Year=2023
Genre=Black Metal
Discnumber=1/1



[ Hidden Text ]
Fryz
Такое себе, прямо сказать. Если совсем прямо, то хлам.
Mortis
Какой хлам??? Мощь просто нереальная!!! Рифы отличные!!! Вокал супер!!!
This is a "lo-fi" version of our main content. To view the full version with more information, formatting and images, please click here.
Invision Power Board © 2001-2024 Invision Power Services, Inc.