*Artist: Encryptment
*Album: Mangel Fr​å​n S​ö​derort [demo]
*Year: 2019
*Genre: Blackened Death Metal/Crust
*Country: Sweden
*Format: mp3@CBR320kbps
*Size: 20MB

Tracklist:
1.Grå Utopi 02:39
2.Min Dröm 02:33
3.Knivar Och Öppna Sår 03:09
******************************
Total playing time: 8:21





Technical info

Input File: 01 Grå Utopi.mp3
Channels : 2
Sample Rate : 44100
Precision : 16-bit
Duration : 00:02:39.91 = 7051899 samples = 11993 CDDA sectors
File Size : 6.47M
Bit Rate : 324k
Sample Encoding: MPEG audio (layer I, II or III)
Comments :
Title=Grå Utopi
Artist=Encryptment
Album=Mangel Från Söderort
Tracknumber=1/3
Year=2019
Genre=Death Metal
Discnumber=1/1



[ Hidden Text ]