Help - Search - Members - Calendar
Full Version: Vanessa Funke - Remains (2024)
Metal Area - Extreme Music Portal > Releases Area / Релизы > New Releases
Necrokilldozer


*Artist: Vanessa Funke
*Album: Remains
*Year: 2024
*Genre: Melodic Death/Gothic Metal
*Country: Germany
*Format: mp3@CBR320kbps
*Size: 144MB

Tracklist:
1. Shattered Visions 05:28
2. Winter 06:15
3. Demons 03:56
4. New Dawn Rising 04:01
5. Road to Nowhere 06:13
6. Recurring Dreams 05:45
7. Silent Descent 05:17
8. Bloodshed Inferno 03:50
9. Eradicate the Enemy 04:13
10. Yearning 04:31
11. A New Day 02:07
12. Festung 08:45
******************************
Total playing time: 1:00:21



Extended info
BANDCAMP FLAC RIP


Technical info

Input File: 02. Winter.mp3
Channels : 2
Sample Rate : 44100
Precision : 16-bit
Duration : 00:06:15.80 = 16572560 samples = 28184.6 CDDA sectors
File Size : 15.0M
Bit Rate : 320k
Sample Encoding: MPEG audio (layer I, II or III)
Comments :
Title=Winter
Artist=Vanessa Funke
Album=Remains
Tracknumber=2
Year=2024
Genre=Melodic Death | Gothic Metal



[ Hidden Text ]
rominow
All songs, instruments and voices: Vanessa Funke
One woman проект.
emp8080
ЦИТАТА(rominow @ Apr 2 2024, 23:31:07) *
All songs, instruments and voices: Vanessa Funke
One woman проект.

Поет явно какой то мужик.
Но материал интересный.
isvili
ЦИТАТА(emp8080 @ Apr 3 2024, 18:51:48) *
Поет явно какой то мужик.
Поет она, слышно ведь что тетка на вокале 23.gif
This is a "lo-fi" version of our main content. To view the full version with more information, formatting and images, please click here.
Invision Power Board © 2001-2024 Invision Power Services, Inc.