Help - Search - Members - Calendar
Full Version: Raptor - Manusia (2024)
Metal Area - Extreme Music Portal > Releases Area / Релизы > New Releases
Samaritianin


*Artist: Raptor
*Album: Manusia
*Year: 2024
*Genre: Heavy/Speed Metal
*Country: Indonesia
*Format: mp3@CBR320kbps
*Size: 79MB

Tracklist:
01. Welcome Raptor 01:46
02. Manusia 05:26
03. Perang Saudara 04:22
04. Pangeran Serigala 05:25
05. Hidup 04:02
06. Langit Hitam 04:38
07. Musnah Dan Sirna 04:28
08. Api Kejahatan 04:06
******************************
Total playing time: 34:13



Extended info
Vocal : Kiki
Guitar 1 : Raven
Guitar 2 : Ros
Bass : Bang Oye
Drum : Masbon


Technical info

Input File: 07 - Musnah Dan Sirna.mp3
Channels : 2
Sample Rate : 44100
Precision : 16-bit
Duration : 00:04:28.00 = 11818800 samples = 20100 CDDA sectors
File Size : 10.9M
Bit Rate : 326k
Sample Encoding: MPEG audio (layer I, II or III)
Comments :
Title=Musnah Dan Sirna
Artist=Raptor
Album=Manusia
Tracknumber=7
Year=2024-03-25
Genre=ロック
Discnumber=1



[ Hidden Text ]
Andrew

Ну так, левоватый Динозавр.
Bloodline Christian
Мне нравятся старые индонезийские Metal-Rock группы (не все конечно) но тут как-то всё вяленько... вроде что-то есть но сыграно и (особенно) спето не ахти. Разок послушать и забыть к сожалению. Спасибо за ознакомление.
This is a "lo-fi" version of our main content. To view the full version with more information, formatting and images, please click here.
Invision Power Board © 2001-2024 Invision Power Services, Inc.