Help - Search - Members - Calendar
Full Version: Menace - Into The Realm Of Chaos (2022)
Metal Area - Extreme Music Portal > Releases Area / Релизы > Archive
smysl


*Artist: Menace
*Album: Into The Realm Of Chaos
*Year: 2022
*Genre: Thrash Metal
*Country: Brazil
*Format: mp3@CBR320kbps
*Size: 75MB

Tracklist:
1.Into the Realm of Chaos 03:41
2.Lethargy 04:04
3.Useless Life 04:29
4.Curse Behind Your Fear 05:11
5.Procreation of Disease 04:20
6.Rotten Hypocrites 04:50
7.Live with Lies 04:33
******************************
Total playing time: 31:08




Extended info
Re-recordings of songs from the 1980s. Tracks 1-5 are re-recordings from the band's second demo (Into the Realms), track 6 is a song written in the '80s but never recorded before, and track 7 is a re-recording of a song from the band's first demo (Apostles of Violence).


Technical info

Input File: 01 Into the Realm of Chaos.mp3
Channels : 2
Sample Rate : 44100
Precision : 16-bit
Duration : 00:03:41.59 = 9771943 samples = 16619 CDDA sectors
File Size : 9.00M
Bit Rate : 325k
Sample Encoding: MPEG audio (layer I, II or III)
Comments :
Title=Into the Realm of Chaos
Artist=Menace
Album=Into the Realm of Chaos
Tracknumber=1/7
Year=2022
Genre=Thrash Metal
Discnumber=1/1



[ Hidden Text ]
smysl
FLAC

[ Hidden Text ]
This is a "lo-fi" version of our main content. To view the full version with more information, formatting and images, please click here.
Invision Power Board © 2001-2024 Invision Power Services, Inc.