Help - Search - Members - Calendar
Full Version: Toxic Pub - To Not Die Blind (2024)
Metal Area - Extreme Music Portal > Releases Area / Релизы > New Releases
Samaritianin


*Artist: Toxic Pub
*Album: To Not Die Blind
*Year: 2024
*Genre: Thrash Metal
*Country: Greece
*Format: mp3@CBR320kbps
*Size: 82MB

Tracklist:
01. Toxic Pub
02. Panic Attack
03. ..To Not Die Blind
04. Still Unformed
05. The End is Nigh
06. Thin Line
07. Stoned to Death
08. Delusions
******************************
Total playing time: 34:49



Extended info
Adriano Ferro Bass (2020-present)
Dimitris Fourniotis Drums (2020-present)
Stephanos Konstantinou Guitars (lead) (2020-present)
See also: Typhus
George Kokolios Vocals, Guitar (2020-present)


Technical info

Input File: 07 - Stoned to Death.mp3
Channels : 2
Sample Rate : 44100
Precision : 16-bit
Duration : 00:05:38.00 = 14905800 samples = 25350 CDDA sectors
File Size : 13.9M
Bit Rate : 328k
Sample Encoding: MPEG audio (layer I, II or III)
Comments :
Title=Stoned to Death
Artist=Toxic Pub
Album=To Not Die Blind
Tracknumber=7
Year=2024-05-05
Genre=Metal
Discnumber=1



[ Hidden Text ]
Genuine Thrashiac
bandcamp ссылка, как это водится у Samaritianin, не представляет данный релиз, а ведёт на наличие живой демки
(их дебютного релиза) Toxic Pub - Live Demo 2021 [demo] (2021)

Актуальная для данного релиза ссылка
This is a "lo-fi" version of our main content. To view the full version with more information, formatting and images, please click here.
Invision Power Board © 2001-2024 Invision Power Services, Inc.