Help - Search - Members - Calendar
Full Version: Selk'nam - Kamuk [ep] (2024)
Metal Area - Extreme Music Portal > Releases Area / Релизы > Archive
Necrokilldozer


*Artist: Selk'nam
*Album: Kamuk [ep]
*Year: 2024
*Genre: Atmospheric Black Metal
*Country: Argentina
*Format: mp3@CBR320kbps
*Size: 33MB

Tracklist:
1. Kojh 06:46
2. Chalu 07:17
******************************
Total playing time: 14:03



Technical info

Input File: 01. Kojh.mp3
Channels : 2
Sample Rate : 44100
Precision : 16-bit
Duration : 00:06:46.10 = 17908966 samples = 30457.4 CDDA sectors
File Size : 16.3M
Bit Rate : 322k
Sample Encoding: MPEG audio (layer I, II or III)
Comments :
Title=Kojh
Artist=Selk'nam
Album=Kamuk (EP)
Tracknumber=1
Year=2024
Genre=Atmospheric Black Metal



[ Hidden Text ]
Evrom
thanks! good black metal with atmospheric & raw aspects
"name your price" on bandcamp
This is a "lo-fi" version of our main content. To view the full version with more information, formatting and images, please click here.
Invision Power Board © 2001-2024 Invision Power Services, Inc.