Help - Search - Members - Calendar
Full Version: Desolation Temple - Desolation Temple (2024)
Metal Area - Extreme Music Portal > Releases Area / Релизы > Archive
Samaritianin


*Artist: Desolation Temple
*Album: Desolation Temple
*Year: 2024
*Genre: Atmospheric Black Metal
*Country: Brazil
*Format: mp3@CBR320kbps
*Size: 76MB

Tracklist:
1. Through the Darkness Line
2. Diffuse Shadows
3. Parallels Universe
4. Inverted Reality
5. Lost Memories
6. Drifting Souls
7. Eternal Regret...
8. The Creator’s Pride (Amen Corner cover)
******************************
Total playing time: 32:52



Extended info
Rafael Ribeiro Guitars, Bass, Keyboards (2023-present)
See also: Pagan Throne, Continuum Shift, ex-Angelique, ex-Unnature
Rodrigo Garm Vocals, Lyrics (2023-present)
See also: Pagan Throne, ex-Bloodythiirsty


Technical info

Input File: 07 - Eternal Regret.mp3
Channels : 2
Sample Rate : 44100
Precision : 16-bit
Duration : 00:04:26.00 = 11730600 samples = 19950 CDDA sectors
File Size : 10.8M
Bit Rate : 325k
Sample Encoding: MPEG audio (layer I, II or III)
Comments :
Title=Eternal Regret...
Artist=Desolation Temple
Album=Desolation Temple
Tracknumber=7
Year=2024-05-15
Genre=Metal
Discnumber=1



[ Hidden Text ]
Evrom
modern black metal with atmospheric & melodic aspects
full album youtube preview :
https://youtu.be/VKNVD-TG9CY?si=YAOsvjdstmk_B1XM
This is a "lo-fi" version of our main content. To view the full version with more information, formatting and images, please click here.
Invision Power Board © 2001-2024 Invision Power Services, Inc.