Help - Search - Members - Calendar
Full Version: Superdeathflame - A Tale Of Disclosure [ep] (2024)
Metal Area - Extreme Music Portal > Releases Area / Релизы > New Releases
Samaritianin


*Artist: Superdeathflame
*Album: A Tale Of Disclosure [ep]
*Year: 2024
*Genre: Melodic Death Metal
*Country: Finland
*Format: mp3@CBR320kbps
*Size: 45MB

Tracklist:
1. Untold Reality 03:41
2. A Tale of Disclosure 03:39
3. Circle of the Weak 04:36
4. Deforming Delusion 03:37
5. Heaven Is a Place on Earth 03:54
******************************
Total playing time: 19:27




Extended info
Marko Tuhkunen Drums
See also: ex-Befrost
Tomi Tilli Guitars
See also: ex-Befrost
Ville Mussalo Guitars
See also: Kaunis Kuolematon, Metallijate, End of Aeon


Technical info

Input File: 05 - Heaven Is a Place on Earth.mp3
Channels : 2
Sample Rate : 44100
Precision : 16-bit
Duration : 00:03:54.00 = 10319400 samples = 17550 CDDA sectors
File Size : 9.51M
Bit Rate : 325k
Sample Encoding: MPEG audio (layer I, II or III)
Comments :
Title=Heaven Is a Place on Earth
Artist=SuperDeathFlame
Album=A Tale of Disclosure
Tracknumber=5
Year=2024-05-15
Genre=Metal
Discnumber=1



[ Hidden Text ]
KLOP
Предыдущий был шикарен и вошел в почетное место в моем плейлисте, посмотрим как этот будет...
zauber1
Вполне себе годно.
This is a "lo-fi" version of our main content. To view the full version with more information, formatting and images, please click here.
Invision Power Board © 2001-2024 Invision Power Services, Inc.