Help - Search - Members - Calendar
Full Version: Sons Of Cult - Desolation [ep] (2024)
Metal Area - Extreme Music Portal > Releases Area / Релизы > New Releases
necroscum


*Artist: Sons Of Cult
*Album: Desolation [ep]
*Year: 2024
*Genre: Heavy Metal
*Country: Spain
*Format: mp3@CBR320kbps
*Size: 36MB

Tracklist:
1. Here We Are 04:02
2. Desolation 04:12
3. Now It's My Turn 03:11
4. Too Late Again 03:40
******************************
Total playing time: 15:05


Preview 2


Technical info

Input File: 03 - Now It\'s My Turn.mp3
Channels : 2
Sample Rate : 44100
Precision : 16-bit
Duration : 00:03:11.72 = 8454984 samples = 14379.2 CDDA sectors
File Size : 8.07M
Bit Rate : 337k
Sample Encoding: MPEG audio (layer I, II or III)
Comments :
Title=Now It's My Turn
Artist=Sons of Cult
Album=Desolation
Tracknumber=3/4
Year=2024
Discnumber=1/1



[ Hidden Text ]
hellraiser69
Line-Up:

Jordi Segura : Drums
Vicente Payá Guitars (Bis•nte, Decrapted, Golgotha, Holycide, Unbounded Terror, Yskelgroth, Amon the Sign, Unwom, ex-Shock Wave, ex-Kocsis, ex-Lucifer)
Jaume Vilanova: Vocals ( ex-Whoremageddon)
Vicky Offidani: Bass
Dan Garcia : Guitars (Golgotha)
Hombrebotella
Genial, muchas gracias, gran banda de Metal clasico.
Esto si es velocidad, sale ayer y ya lo tenéis, jajaja.
Mcuhas gracias.

Отлично, большое спасибо, отличная классическая метал-группа.
Это скорость, она вышла вчера и уже есть, ха-ха-ха.
Большое спасибо.
This is a "lo-fi" version of our main content. To view the full version with more information, formatting and images, please click here.
Invision Power Board © 2001-2024 Invision Power Services, Inc.