*Artist: Dreamweaver
*Album: Sign Of The Ancient Flame [single]
*Year: 2024
*Genre: Heavy Metal
*Country: Spain
*Format: mp3@CBR320kbps
*Size: 31MB

Tracklist:
1.Sign of the Ancient Flame 05:44
2.Zoroaster 07:44
******************************
Total playing time: 13:28


instagram
Preview 3

Technical info

Input File: 02 Zoroaster.mp3
Channels : 2
Sample Rate : 44100
Precision : 16-bit
Duration : 00:07:44.83 = 20498783 samples = 34861.9 CDDA sectors
File Size : 18.8M
Bit Rate : 324k
Sample Encoding: MPEG audio (layer I, II or III)
Comments :
Title=Zoroaster
Artist=Dreamweaver
Album=Sign of the Ancient Flame
Tracknumber=2/2
Year=2024
Genre=Heavy Metal
Discnumber=1/1



[ Hidden Text ]