*Artist: Seconds2Midnite
*Album: Dystopia
*Year: 2022
*Genre: Progressive Metal/Modern Metal
*Country: Canada
*Format: mp3@CBR320kbps
*Size: 105MB

Tracklist:
01. Crushing 03:13
02. Contortion 03:49
03. Disposable 03:40
04. Fortune 04:07
05. Dystopia 05:30
06. Falling into 04:25
07. Gasoline in the back seat 03:42
08. All dark places 03:54
09. S.I.L.F.A.R 03:56
10. Here we go again 03:22
11. Holier than thou 03:46
******************************
Total playing time: 43:24







Extended info
Aaron Randall (Annihilator, Wreck Defy) - voice
Tony Hill (Dessert Merc, Deville Throttle) - guitars
Kevin Lovering (Whiskey River Gun club, Wreckin Crew) - drums
Gyula Havancsák (ex-Bornholm) - bass


Technical info

Input File: 01. Crushing.mp3
Channels : 2
Sample Rate : 44100
Precision : 16-bit
Duration : 00:03:13.08 = 8515004 samples = 14481.3 CDDA sectors
File Size : 8.01M
Bit Rate : 332k
Sample Encoding: MPEG audio (layer I, II or III)
Comments :
Title=Crushing
Artist=Seconds2Midnite
Album=Dystopia
Tracknumber=1
Year=2022
Genre=Modern | Progressive Metal



[ Hidden Text ]