Welcome Guest ( Log In | Register )

История благодарностей участнику RunningWild_AT ::: Спасибо сказали: 1045 раз(а)
Дата поста: В теме: За сообщение: Спасибо сказали:
May 6 2020, 11:32:26 Skylla - Mother Crataeïs [ep] (2001)


*Artist: Skylla
*Album: Mother Crataeïs [ep]
*Year: 2001
*Genre: Doom/Death Metal
*Country: Netherlands
*Format: mp3@CBR128kbps
*Size: 27MB

Tracklist:
01.  Coat of Tar  05:47
02.  Bewitched and haunted  08:12
03.  The lost Cornucopia  08:08
04.  Bleak  07:11
******************************
Total playing time: 29:18

M-A

[more=Extended info]requested[/more]

[more=Technical info]
Input File: Skylla [NLD] — 2001 — Mother Crataeïs — 02 — Bewitched and haunted.mp3
Channels : 2
Sample Rate : 44100
Precision : 16-bit
Duration : 00:08:12.13 = 21702801 samples = 36909.5 CDDA sectors
File Size : 7.88M
Bit Rate : 128k
Sample Encoding: MPEG audio (layer I, II or III)
Comments :
Title=Bewitched and haunted
Artist=Skylla [NLD]
Album=Mother Crataeïs
Tracknumber=02
Year=2001
Genre=Doom/Death Metal

[/more]

Register
(6) BlackArrow, Olethros, sergsazan, Synthaeon, thenecromancer, VALERY,
Feb 27 2020, 01:06:09 Negligent Collateral Collapse - 28 Minutes of Silence for All Innocent Victims...And Boneses [best of/compilation] (2010)
QUOTE(Proteus_666 @ Jan 14 2020, 10:31:53) *
reupload please

re-up (vbr199):
Register

(1) Proteus_666,
Nov 5 2019, 03:28:45 Neolith - Igne Natura Renovabitur Integra (1998)
QUOTE(VLADISLAV_V_K @ Nov 2 2019, 10:35:18) *
FLAC, please ! pray.gif

I really don´t understand what´s wrong with the cbr320 posted by Borderline1991, but sure your $15K hifi-equipment will make this an extra-ordinary listening experience and not just a waste of discspace… 20.gif
So here´s (as requested) a super-duper HQ version of this excellent album, enjoy. smile3.gif

► FLAC24 (1.72 GB) - get it while it´s hot.
Register
(3) Evilded, Synthaeon, VLADISLAV_V_K,
Oct 29 2019, 01:15:16 Laceration A.D. - Start Swingin (Ask Questions Later) [demo] (2002)
FYI: Demo title is "Start Swingin (Ask Questions Later)".
Cover and slightly different track titles added to M-A
(3) Borderline1991, Proteus_666, Wail,
Aug 7 2019, 02:11:07 Septicemia - Revenge On Mankind [demo] (1998)
Wow, another amazing share by you, Proteus! 9.gif
Long-time on my wishlist, I never handled to catch this demo…
pray.gif Big thanks, you rule bro!
(2) pichileon, Proteus_666,
Aug 5 2019, 13:46:34 Mortal Remains - Mortal Remains (1994)
QUOTE(Proteus_666 @ Aug 2 2019, 12:02:16) *
reupload please this one

re-up: cbr192
Register
(6) AndreFrancis, infiltrator, scorpionmk, thenecromancer, troll_swamp, Герб,
May 19 2019, 00:19:11 Demolition - Strike Force [ep] (2007)
Low bitrate but good rip (likely from mySpace), so maybe better than nothing. - Excellent technical TM (teaser) that has to be heard:
vbr120
Register

Requested by hollobollo, Genuine Thrashiac, Cal11, SpeedThrasher, Mortul.
(2) pichileon, stumpheavyrock,
May 13 2019, 03:17:04 Incarnator
QUOTE(canadaspaceman @ Apr 3 2019, 06:39:39) *
+ 2 pray.gif
I am joining the request for everything by INCARNATOR.
I have Nordic Holocaust @192

Seems to be a much sought-after demo.
More a rehearsal than a well-produced studio promo track though.

Requested by Wintherzorn, Bloodlust, hellkult, SlimBZ, thenecromancer, CanadaSpaceman and other boards.
Just uploaded, waiting for moderation… (dedicated to CanadaSpaceman) ► Incarnator - Promo [demo] (1992)

QUOTE(Bloodlust @ Oct 29 2012, 13:09:50) *
Great news! I have actually waited for this moment for years.

(2) canadaspaceman, thenecromancer,
May 13 2019, 03:08:11 Incarnator - Promo [demo] (1992)


*Artist: Incarnator
*Album: Promo [demo]
*Year: 1992
*Genre: Black Metal
*Country: Norway
*Format: mp3@CBR192kbps
*Size: 7MB

Tracklist:
01.  In nocturnal Glory  (05:04)
******************************
Total playing time: 5:04

[more=Extended info]Seems to be a much [url="https://metalarea.org/forum/index.php?showtopic=155106"]sought-after demo[/url].
More a rehearsal than a well-produced studio promo track though.[/more]

[more=Technical info]
Input File: Incarnator [NOR] — 1992 — [Promo 1992] — 01 — In nocturnal Glory.mp3
Channels : 2
Sample Rate : 44100
Precision : 16-bit
Duration : 00:05:04.20 = 13415000 samples = 22814.6 CDDA sectors
File Size : 7.29M
Bit Rate : 192k
Sample Encoding: MPEG audio (layer I, II or III)
Comments :
Title=In nocturnal Glory
Artist=Incarnator [NOR]
Album=[Promo 1992]
Tracknumber=01
Year=1992
Genre=Black Metal

[/more]

Register
(14) 1968_janeart, Boozer, canadaspaceman, dermarsoran, FUDEDOR, luxxul, MP101M, Rosen, Rudolfo_Metal, RUSP73, Sjelekval, stub888, stumpheavyrock, thenecromancer,
Apr 9 2019, 17:52:47 Julie Laughs Nomore - Julie Laughs Nomore [ep] (1996)
QUOTE(Proteus_666 @ Apr 9 2019, 10:05:03) *
reup please.

Register


(4) morbidangelo, pichileon, Proteus_666, Z28517,
Apr 8 2019, 21:37:30 Bloodshed - Fairyland [demo] (1998)
Register
(2) wgs73, Z28517,
Apr 5 2019, 11:54:55 Carronya - Demo [demo] (1994)
QUOTE(Borderline1991 @ Mar 29 2019, 17:57:51) *
+1

Register
(8) Alfredoelruso, BemoaningSign, Borderline1991, stumpheavyrock, thenecromancer, warrr, wendigo, Герб,
Mar 15 2019, 02:23:39 Krabathor & Pandemia - The Rise Of Brutality/Pain [split] (1996)
QUOTE(Borderline1991 @ Mar 14 2019, 16:15:12) *
please reupload.

cbr128
Register

(2) Borderline1991, dermarsoran,
Feb 12 2019, 15:44:04 On Wings - Tearing Away [demo] (1995)
I´ll stick to the given Myzuka.me share, it´s the better rip (both spek and quality).
Register
(3) elchapo, serhio, thenecromancer,
Jan 17 2019, 13:50:21 Asyndess - Illumination [demo] (1995)
Wow, thanks for the detailed statement, couldn´t say any better - it´s like out of the textbook…

Absolutely agree, usually I also try to find highest possible bitrate on re-ups without previous checking for quality issues .

QUOTE(Borderline1991 @ Jan 17 2019, 09:01:43) *
… best to buy the actual original/physical release. Nothing ever compares to that, and no digitization can replace owning original.
Another sentence out of the textbook!

Support the bands and buy the music you like.
 
(1) Borderline1991,
Jan 16 2019, 03:17:17 Asyndess - Desesperances (1996)
QUOTE(thenecromancer @ Jan 14 2019, 22:26:43) *
From the web, same bitrate (cbr192)
I'm looking for the tape-rip version (just in case...): https://www.discogs.com/Asyndess-Desesperan...release/6331955

Forget about this webrip Tony!
The Bandcamp rip (cbr128) sounds way better - and furthermore provides complete tracks #3 and #12!
(1) thenecromancer,
Jan 16 2019, 02:49:29 Asyndess - Illumination [demo] (1995)
QUOTE(Borderline1991 @ Nov 17 2016, 09:00:16) *
tape rip, mp3@vbr~292kbps, big scans, 94mb

QUOTE(thenecromancer @ Jan 14 2019, 21:18:29) *
mp3.cbr128:

A perfect example for all these bitrate junkies out there - the cbr128 outperformes the vbr290 bitrate (both on same volume) by ≥400%.

QUOTE(RunningWild_AT)
"Bitrate means nothing, the source decides!"

So to all web-rippers or ignorants:
You can rip your YouTube [1] or lousy source [2] with cbr320 or even lossless [3] but it won´t mean anything, it´s just a waste of disk space! 21.gif

notes:
[1] Youtube usually streams in AAC.cbr128 format or lower unless it´s a professional HD video (after July 2012). Lateron it might be AAC.cbr192 (till today) - but never ever more!
[2] Many don´t understand that a self-burnt CDr filled with web-collected tracks is a lousy source. If the bitrate is (was) low it won´t get any better if you upconvert it to WAV (=Lossless cbr1411). - "Hey I ripped it from CD!" crazy.gif
[3] Lossless itself makes no sense unless you´re planning further editing, transcoding or re-production, but increasing lossless settings [4] makes me sick even more.
[4] The new trend to pimp rips with 16→24 bit, even 'better' upgrading frequency from 44→192 KHz for lossless rip is sheer stupidity and a perfect waste of disk space!
2-3 GB for ripping an audio cd does not make any sense. - Just leave the default settings unless you own the original 24-track studio recordings plus know what you´re doing.

That´s no critizism of the tape-rip or tape-ripper above - not at all (thanks D! for uploading it, the HQ scans are much appreciated) - it´s just a pamphlet against ignorant web-rippers & lossless.
I got two vintage cbr96-rips sounding better than any later rip I ever found lateron…
(2) Borderline1991, thenecromancer,
Jan 8 2019, 14:09:15 Heimdalls Wacht - Rehearsal [demo] (2008)
QUOTE(thenecromancer @ Jan 8 2019, 12:53:47) *
For me it's OK 9.gif


re-up: vbr214
Register
(2) INDARKNESS, thenecromancer,
Jan 8 2019, 00:45:35 Kabarah - Magnificent Art Of War [demo] (2000)
QUOTE(Borderline1991 @ Feb 24 2017, 08:12:06) *
Please reupload.


re-up: cbr128
Register
(5) Borderline1991, INDARKNESS, infiltrator, kim666, varg-38ru,
Dec 20 2018, 02:49:25 Hard-Boiled - Mantis [ep] (1997)
re-up (vbr232, scene):
Register
(3) METALHUNTER, pichileon, SyncestrA,
Dec 20 2018, 02:48:26 Trascëndental - Nothingness [best of/compilation] (2014)
re-up (FLAC):
Register

re-up (vbr176):
Register
(2) pichileon, SyncestrA,
Dec 19 2018, 07:41:42 Mindlock - Ego Trip (2003)
re-up (cbr192):
Register
(4) METALHUNTER, pichileon, RotAnus, SyncestrA,
Dec 19 2018, 07:40:38 Mindlock - Enemy Of Silence (2010)
re-up (vbr248):
Register


re-up (FLAC):
Register
(4) METALHUNTER, pichileon, RotAnus, SyncestrA,
Dec 19 2018, 07:38:34 Squad - Scars Of Humanity (2002)
re-up (cbr192):
Register
(3) METALHUNTER, pichileon, SyncestrA,
Dec 17 2018, 09:33:19 Today Needed
QUOTE(Lanceatum @ Nov 5 2018, 03:51:46) *
Буду премного благодарен за перезалив нижеперечисленных релизов:
Fissure & ShacklƩs - Fissure/ShacklƩs [split] (2016)
Muerte Por Implosion - 14 Canonazos De Muerte Por Implosion (2011)

2 more re-ups done for Lanceatum.
(1) Lanceatum,

10 Pages V   1 2 3 > » 
- Lo-Fi Version Support form
Copyrights and abuse reports form
Time is now: 6th June 2020 - 07:53:46