Welcome Guest ( Log In | Register )

> Deathening - Chained In Blood (2013), Melodic Death Metal
post May 18 2013, 17:15:40
Post #1

Serial Uploader
Group Icon
Group: V.I.P
Posts: 37,532
Releases: 35706
From: Lithuania
On Forums: 12 years 7 months
Thanks: 430747 time(s)
Lithuania


(IMG:http://metalarea.org/images/audiocovers/2013_May/acov_tid201268_thumb.jpg)

*Artist: Deathening
*Album: Chained In Blood
*Year: 2013
*Genre: Melodic Death Metal
*Country: Sweden (IMG:http://metalarea.org/forum/style_images/flags/Sweden.png)
*Format: mp3@CBR320kbps
*Size: 106MB

Tracklist:
01. Self Impaled 02:32
02. Slave To The Kill 04:03
03. Bleed 07:16
04. Terminal Retribution 04:01
05. Beast Inside 04:58
06. The Living Burn 04:07
07. Ether 00:53
08. Prepare To Die 04:24
09. Lights Out 03:45
10. Butchered Souls Of No Tomorrow 06:05
11. Final Fierce Disdain 02:54
12. Ceased 01:16
******************************
Total playing time: 46:14

(IMG:http://metalarea.org/images/myspace.png)

Technical info
(IMG:http://metalarea.org/images/spectrogram/2013_May/f95bd69f923b48be020023e1ba00fa67.png)
Input File: 02 Slave To The Kill.mp3
Channels : 2
Sample Rate : 44100
Precision : 16-bit
Duration : 00:04:03.54 = 10740070 samples = 18265.4 CDDA sectors
File Size : 9.74M
Bit Rate : 320k
Sample Encoding: MPEG audio (layer I, II or III)
Comments :
Title=Slave To The Kill
Artist=Deathening
Album=Chained In Blood
Tracknumber=2/12
Year=2013



Register


Go to the top of the page
  Insert nick Quick quote
+Quote Post
 
Start new topic
Replies (1 - 5)
post May 19 2013, 03:49:57
Post #2

Up From The Grave
********
Group: Металариец
Posts: 869
Releases: 122
From: Minsk
On Forums: 11 years 6 months
Thanks: 2392 time(s)
Belarus




Thanks:
(1) stakanoff,
Go to the top of the page
  Insert nick Quick quote
+Quote Post
post May 19 2013, 22:25:25
Post #3

No More Tears
**************
Group: Металариец
Posts: 4,989
Releases: 114
From: Тбилиси, Грузия
On Forums: 14 years 5 months
Thanks: 2401 time(s)
Georgia


Нехороший "современный" мдм нынче пошел, совсем стиль испортили ех
Go to the top of the page
  Insert nick Quick quote
+Quote Post
post May 20 2013, 05:15:55
Post #4

Два Литра
**
Group: Завсегдатай
Posts: 150
Releases: 0
On Forums: 13 years 3 weeks
Thanks: 17 time(s)
Russian Federation


Качественный продукт.
Go to the top of the page
  Insert nick Quick quote
+Quote Post
post May 21 2013, 00:10:24
Post #5

Ъ
**************
Group: Металариец
Posts: 10,421
Releases: 9
On Forums: 12 years 1 week
Thanks: 2124 time(s)
Sweden


Сыграно модерново, материал без соплей, но блеклый. В общем, если есть что послушать - можно пропускать.
Go to the top of the page
  Insert nick Quick quote
+Quote Post
post Jan 13 2021, 19:30:26
Post #6

Три Литра
***
Group: Завсегдатай
Posts: 247
Releases: 0
From: Суворов
On Forums: 2 years 11 months
Thanks: 6 time(s)
Russian Federation


шведы, а чё-то блин не зацепили(
Go to the top of the page
  Insert nick Quick quote
+Quote Post

Reply to this topicStart new topic
2 User(s) are reading this topic (2 Guests and 0 Anonymous Users)
0 Members:

 



- Lo-Fi Version Support form
Copyrights and abuse reports form
Time is now: 16th January 2021 - 03:11:02