Welcome Guest ( Log In | Register )

> Six Feet Under - Crypt Of The Devil (2015), Death Metal
post Apr 30 2015, 20:51:19
Post #1

Аннигилятор пивА
Group Icon
Group: V.I.P
Posts: 52,360
Releases: 16550
From: Koenigsberg - TILZIT
On Forums: 14 years 4 months
Thanks: 366234 time(s)
Russian Federation


(IMG:https://metalarea.org/images/audiocovers/2015_Apr/acov_tid244442_thumb.jpg)

*Artist: Six Feet Under
*Album: Crypt Of The Devil
*Year: 2015
*Genre: Death Metal
*Country: United States (IMG:https://metalarea.org/forum/style_images/flags/United%20States.png)
*Format: mp3@CBR320kbps
*Size: 90MB

Tracklist:
01. Gruesome 03:06
02. Open Coffin Orgy 04:22
03. Broken Bottle Rape 03:02
04. Break the Cross in Half 03:35
05. Lost Remains 03:25
06. Slit Wrists 03:54
07. Stab 03:52
08. The Night Bleeds 04:09
09. Compulsion to Brutalize 03:17
10. Eternal Darkness 04:12
******************************
Total playing time: 36:54



Extended info
Пока могу сказать, что опен коффин рвет!

Chris Barnes - Vocals (ex-Leviathan, ex-Tirant Sin, ex-Cannibal Corpse, ex-Torture Killer)
Steve Swanson - Guitars (ex-Last Rite, ex-Massacre)
Jeff Hughell - Bass (Jeff Hughell, Reciprocal, ex-Osmium, ex-Brain Drill, ex-Cyanic, ex-Mucus Membrane, ex-Rings of Saturn, ex-Vile)
Marco Pitruzzella - Drums (Anomalous, Jeff Hughell, Neurogenic, Abuse (live), Vörnagar, ex-Brain Drill, ex-The Faceless (live), ex-Vile (live), ex-Vital Remains (live), ex-Anthem 85, ex-Apocrypha, ex-Atrocious Hysteria, ex-Dark Heritage, ex-Lord Marco, ex-Numa, ex-Ritual Hatred)



Technical info
(IMG:https://metalarea.org/images/spectrogram/2015_Apr/41156509d2ecc3a1670e3e367c45d532.png)
Input File: 1. Gruesome.mp3
Channels : 2
Sample Rate : 44100
Precision : 16-bit
Duration : 00:03:06.93 = 8243437 samples = 14019.5 CDDA sectors
File Size : 7.48M
Bit Rate : 320k
Sample Encoding: MPEG audio (layer I, II or III)
Comments :
Title=Gruesome
Artist=Six Feet Under
Album=Crypt Of The Devil
Tracknumber=1/10
Year=2015
Genre=Death Metal



Register


This post has been edited by aesteticvice: May 7 2015, 05:46:04


Go to the top of the page
  Insert nick Quick quote
+Quote Post
4 Pages V  « < 2 3 4  
Start new topic
Replies (90 - 91)
post Nov 30 2016, 12:02:23
Post #91

Ёлд ХеллоВяйне
Group Icon
Group: V.I.P
Posts: 30,463
Releases: 138
From: Питер
On Forums: 13 years 11 months
Thanks: 18285 time(s)
Russian Federation


QUOTE(vosmidesijatye @ 30th November 2016 - 13:58:41) *
Пфф, а ты прямо такой чувствительный.


Я, удивительным образом, почему-то не люблю этого. Такой вот я человек странный.

Или ты призываешь всем писать как Ангер, чтобы форум утонул в помоях? Хотя с твоим потоком сознания это уже происходит.
Go to the top of the page
  Insert nick Quick quote
+Quote Post
post Oct 17 2020, 15:30:25
Post #92

Маньяк
**********
Group: Металариец
Posts: 1,019
Releases: 0
From: Кирово-Чепецк
On Forums: 5 years 6 months
Thanks: 194 time(s)
Russian Federation


Go to the top of the page
  Insert nick Quick quote
+Quote Post

4 Pages V  « < 2 3 4
Reply to this topicStart new topic
1 User(s) are reading this topic (1 Guests and 0 Anonymous Users)
0 Members:

 



- Lo-Fi Version Support form
Copyrights and abuse reports form
Time is now: 24th October 2020 - 01:57:16