Welcome Guest ( Log In | Register )

> Spell Forest - Candelarum [ep] (2015), Black Metal
post Mar 20 2016, 08:52:24
Post #1

Мегаманьяк
***********
Group: Металариец
Posts: 1,810
Releases: 1430
From: Prešov
On Forums: 5 years 6 months
Thanks: 34793 time(s)
Slovakia


(IMG:http://metalarea.org/images/audiocovers/2016_Mar/acov_tid264409_thumb.jpg)

*Artist: Spell Forest
*Album: Candelarum [ep]
*Year: 2015
*Genre: Black Metal
*Country: Brazil (IMG:http://metalarea.org/forum/style_images/flags/Brazil.png)
*Format: mp3@CBR320kbps
*Size: 38MB

Tracklist:
1. Candelarum 04:55
2. Rebellionis 03:43
3. Hoc Est Corpus Meus 03:41
4. Viva Satanas 03:29
******************************
Total playing time: 15:48

Extended info
!!!KVLT!!!
!FVK OFF!
!!!!DIE!!!!


Technical info
(IMG:http://metalarea.org/images/spectrogram/2016_Mar/989bd5cf64c37c6d12882ea82fe869d5.png)
Input File: 01. Candelarum.mp3
Channels : 2
Sample Rate : 44100
Precision : 16-bit
Duration : 00:04:55.27 = 13021231 samples = 22145 CDDA sectors
File Size : 12.0M
Bit Rate : 325k
Sample Encoding: MPEG audio (layer I, II or III)
Comments :
Title=Candelarum
Artist=Spell Forest
Album=Candelarum
Tracknumber=01/04
Year=2015
Genre=Black Metal



Register


Go to the top of the page
  Insert nick Quick quote
+Quote Post
 
Start new topic
Replies (1 - 3)
post Mar 20 2016, 12:38:00
Post #2

Маньяк
**********
Group: Металариец
Posts: 1,096
Releases: 0
On Forums: 8 years 5 months
Thanks: 486 time(s)
Unknown


Thank you for sharing, but the extended info....seriously?


Thanks:
Go to the top of the page
  Insert nick Quick quote
+Quote Post
post Mar 21 2016, 06:11:30
Post #3

Два Литра
**
Group: Завсегдатай
Posts: 138
Releases: 0
From: Lexington, SC, USA
On Forums: 12 years 7 months
Thanks: 13 time(s)
United States


Yeah...was that really necessary?

It's the kind of shit that gives metalheads a bad rep.
Go to the top of the page
  Insert nick Quick quote
+Quote Post
post Mar 27 2016, 10:44:26
Post #4

Правь статус, ####!111
**************
Group: Металариец
Posts: 6,626
Releases: 0
From: Москва
On Forums: 10 years 2 months
Thanks: 13094 time(s)
Russian Federation


Register
320


Go to the top of the page
  Insert nick Quick quote
+Quote Post

Reply to this topicStart new topic
1 User(s) are reading this topic (1 Guests and 0 Anonymous Users)
0 Members:

 



- Lo-Fi Version Support form
Copyrights and abuse reports form
Time is now: 23rd October 2019 - 01:10:26