Welcome Guest ( Log In | Register )

> The Malice - Malevolent Creature Of Kings [ep] (2016), Death Metal
post May 20 2016, 09:19:48
Post #1

Правь статус, ####!111
**************
Group: Металариец
Posts: 19,772
Releases: 13408
From: Г.Харьков
On Forums: 7 years 6 months
Thanks: 231755 time(s)
Unknown


(IMG:http://metalarea.org/images/audiocovers/2016_May/acov_tid267761_thumb.jpg)

*Artist: The Malice
*Album: Malevolent Creature Of Kings [ep]
*Year: 2016
*Genre: Death Metal
*Country: Unknown (IMG:http://metalarea.org/forum/style_images/flags/Unknown.png)
*Format: mp3@CBR320kbps
*Size: 32MB

Tracklist:
1. Nâmtaru 03:35
2. Malevolent Creature of Kings 03:31
3. The False Throne of Glory 03:27
4. Abusing the Virgin of Kadi 03:08
******************************
Total playing time: 13:41

(IMG:http://metalarea.org/images/youtube.png)



Extended info
This band International: Germany / Sweden


Technical info
(IMG:http://metalarea.org/images/spectrogram/2016_May/8c1ae917300cff27ab4406ce3fd84400.png)
Input File: 02 - Malevolent Creature of Kings.mp3
Channels : 2
Sample Rate : 44100
Precision : 16-bit
Duration : 00:03:31.78 = 9339278 samples = 15883.1 CDDA sectors
File Size : 8.47M
Bit Rate : 320k
Sample Encoding: MPEG audio (layer I, II or III)
Comments :
Title=Malevolent Creature of Kings
Artist=The Malice
Album=Malevolent Creature Of Kings
Tracknumber=2
Year=2016
Genre=Death Metal



Register


Go to the top of the page
  Insert nick Quick quote
+Quote Post
 
Start new topic
Replies (1 - 4)
post May 20 2016, 14:29:24
Post #2

Три Литра
***
Group: Завсегдатай
Posts: 299
Releases: 54
From: Rostov-on-Don, Russia
On Forums: 13 years 3 weeks
Thanks: 566 time(s)
Russian Federation


Country: Sweden
Go to the top of the page
  Insert nick Quick quote
+Quote Post
post May 20 2016, 16:21:04
Post #3

Три Литра
***
Group: Завсегдатай
Posts: 299
Releases: 54
From: Rostov-on-Don, Russia
On Forums: 13 years 3 weeks
Thanks: 566 time(s)
Russian Federation


Бэнд хороший, но только было бы хорошо взять за правило и заливать вместе с русфолдером и на яндекс или на медиафайр, на пример
Go to the top of the page
  Insert nick Quick quote
+Quote Post
post Mar 25 2018, 17:46:01
Post #4

Group: Подсевший
Posts: 14
Releases: 0
On Forums: 10 years 6 months
Thanks: 0 time(s)
Russian Federation


Перезалейте, пожалуйста, люди добрые! (IMG:style_emoticons/default/pray.gif)
Go to the top of the page
  Insert nick Quick quote
+Quote Post
post Sep 25 2019, 15:41:35
Post #5

Правь статус, ####!111
**************
Group: Металариец
Posts: 2,044
Releases: 0
From: MoscoW
On Forums: 13 years 3 days
Thanks: 1831 time(s)
Russian Federation


Залито на Мыло - 32.2Mb в 320kbps!!!:
Register

(IMG:style_emoticons/default/metaler.gif)


Thanks:
Go to the top of the page
  Insert nick Quick quote
+Quote Post

Reply to this topicStart new topic
1 User(s) are reading this topic (1 Guests and 0 Anonymous Users)
0 Members:

 



- Lo-Fi Version Support form
Copyrights and abuse reports form
Time is now: 6th December 2019 - 09:04:23