Welcome Guest ( Log In | Register )

> Evoke Thy Lords - Lifestories (2017), Doom/Stoner Metal
post Apr 24 2017, 03:15:13
Post #1

Правь статус, ####!111
**************
Group: Металариец
Posts: 14,303
Releases: 9914
From: Г.Харьков
On Forums: 6 years 4 months
Thanks: 162708 time(s)
Unknown


(IMG:http://metalarea.org/images/audiocovers/2017_Apr/acov_tid287722_thumb.jpg)

*Artist: Evoke Thy Lords
*Album: Lifestories
*Year: 2017
*Genre: Doom/Stoner Metal
*Country: Russian Federation (IMG:http://metalarea.org/forum/style_images/flags/Russian%20Federation.png)
*Format: mp3@CBR320kbps
*Size: 75MB

Tracklist:
1. Regressed 05:31
2. Still Old 07:14
3. Life Is a Trick 07:36
4. Heavy Weather 11:48
5. Stuff It 05:12
******************************
Total playing time: 37:21



Technical info
(IMG:http://metalarea.org/images/spectrogram/2017_Apr/ebb4cda569473d4eacbbcbc876d47304.png)
Input File: 02 - Still Old.mp3
Channels : 2
Sample Rate : 44100
Precision : 16-bit
Duration : 00:07:15.00 = 19183500 samples = 32625 CDDA sectors
File Size : 17.4M
Bit Rate : 320k
Sample Encoding: MPEG audio (layer I, II or III)
Comments :
Title=Still Old
Artist=Evoke Thy Lords
Album=Lifestories
Tracknumber=2
Year=2017
Genre=Doom Metal



Register


Go to the top of the page
  Insert nick Quick quote
+Quote Post
 
Start new topic
Replies (1 - 2)
post Jun 4 2017, 18:30:30
Post #2

Кожаный ублюдок
**************
Group: Металариец
Posts: 2,905
Releases: 6
From: Алчевск (early) Некросибирск (now)
On Forums: 9 years 4 months
Thanks: 1656 time(s)
Russian Federation


Новосибирский ансамбль Evoke Thy Lords уже давно полюбился многим любителям неординарной отечественной музыки. Любим данный квартет не только за отличного качества материал, но и за своё стремление трансформировать стиль и звучание из альбома в альбом, при этом не особенно меняя элементы, которые участвуют в создании этого самого материала. Но когда-нибудь любым экспериментам приходит конец, в основом это происходит тогда, когда группа обретает то звучание, которое устраивает и самих музыкантов, а так же и их поклонников и фанатов, пускай и не всех. Кульминация, так сказать!
Вполне возможно, что именно таким альбомом для наших героев станет «Boys! Raise Giant Mushrooms in Your Cellar!», ибо свежий «Lifestories» до него явно не дотягивает по силе и хитовости. Звук на прошлом опусе тоже был пожирнее, что является немаловажным фактором в стиле, в котором трудится данная великолепная четверка. Ни в коем случае не считаю, что альбом этот неудачен, нет. Просто планка поставленная прошлым альбомом, с его потрясным звуком и очень хитовым материалом, оказалась слишком высока и дважды подряд взять её не вышло, однако руки опускать уж точно не стоит.
В качестве подведения итогов я росто скажу, что это 4/5, ни больше, ни меньше! Очень жду местных сейшенов с участием данных ребят. (IMG:style_emoticons/default/pray.gif) (IMG:style_emoticons/default/pray.gif) (IMG:style_emoticons/default/pray.gif)
Go to the top of the page
  Insert nick Quick quote
+Quote Post
post Nov 4 2017, 15:34:48
Post #3

Quaerite Lux in Tenebris
**********
Group: Металариец
Posts: 1,481
Releases: 18
From: Micsődőllő
On Forums: 8 years 2 months
Thanks: 2464 time(s)
Unknown


320 k (FLAC-Rip)+HQ Scans:
Register


Thanks:
Go to the top of the page
  Insert nick Quick quote
+Quote Post

Reply to this topicStart new topic
1 User(s) are reading this topic (1 Guests and 0 Anonymous Users)
0 Members:

 



- Lo-Fi Version Support form
Copyrights and abuse reports form
Time is now: 22nd September 2018 - 23:24:27