Welcome Guest ( Log In | Register )

> Shepherds Crook - Black Lake (2018), Blackened Sludge/Doom Metal
post Jan 31 2018, 13:17:56
Post #1

Маньяк
**********
Group: Металариец
Posts: 1,016
Releases: 373
On Forums: 8 years 9 months
Thanks: 8484 time(s)
Eritrea


(IMG:http://metalarea.org/images/audiocovers/2018_Jan/acov_tid301254_thumb.jpg)

*Artist: Shepherds Crook
*Album: Black Lake
*Year: 2018
*Genre: Blackened Sludge/Doom Metal
*Country: Norway (IMG:http://metalarea.org/forum/style_images/flags/Norway.png)
*Format: mp3@CBR320kbps
*Size: 93MB

Tracklist:
1.Witch Hammer 09:50
2.Outlaw Speed King 02:59
3.Lizard Tounge Wizard 07:15
4.Dead Sky 06:57
5.Earthworm 04:18
6.Black Lake 08:43
******************************
Total playing time: 40:02



Technical info
(IMG:http://metalarea.org/images/spectrogram/2018_Jan/beeb09bf15d80d11960830004bc7b73a.png)
Input File: 1. We do not Resist cut.mp3
Channels : 2
Sample Rate : 44100
Precision : 16-bit
Duration : 00:02:01.05 = 5338349 samples = 9078.82 CDDA sectors
File Size : 4.84M
Bit Rate : 320k
Sample Encoding: MPEG audio (layer I, II or III)



Register


Go to the top of the page
  Insert nick Quick quote
+Quote Post
 
Start new topic
Replies (1 - 1)
post Feb 2 2018, 13:20:37
Post #2
BAN
Banned till
Oct 7 2019, 23:44:15



Кайфовейший релиз. Первый в стиле за год, что пронял. Ориентиры для банды - Graves At Sea, Weedeater, Dopethrone, то есть самый сок. Блэк здесь в вокале, а музло именно эталонный сладж - грузный, мрачный и больной, каким он и должен быть. (IMG:style_emoticons/default/true_black.gif)

Бэндкамп кстати, фри, там можно и флаконом разжиться.


Thanks:
Go to the top of the page
  Insert nick Quick quote
+Quote Post

Reply to this topicStart new topic
1 User(s) are reading this topic (1 Guests and 0 Anonymous Users)
0 Members:

 



- Lo-Fi Version Support form
Copyrights and abuse reports form
Time is now: 16th September 2019 - 23:33:42