Welcome Guest ( Log In | Register )

> Правила / Rules

Тут только для чтения лежат низкобитрейтные (<192kbps) релизы, для которых есть аналоги в высокобитрейтных форумах.

Here goes (and stand in read only mode) low bitrate releases (<192kbps) which were already replaced by high bitrate releases in corresponding forums.

> Nahtrunar - Mysterium Tremendum (2018), Black Metal (D)
post Feb 9 2018, 15:33:35
Post #1

Девять Литров
*********
Group: Металариец
Posts: 916
Releases: 766
From: Новороссийск
On Forums: 7 years 11 months
Thanks: 13290 time(s)
Russian Federation


(IMG:https://metalarea.org/images/audiocovers/2018_Feb/acov_tid301729_thumb.jpg)

*Artist: Nahtrunar
*Album: Mysterium Tremendum
*Year: 2018
*Genre: Black Metal
*Country: Austria (IMG:https://metalarea.org/forum/style_images/flags/Austria.png)
*Format: mp3@CBR128kbps (IMG:https://metalarea.org/images/bit_low.gif)
*Size: 41MB

Tracklist:
01. Mysterium Tremendum 07:05
02. Das Verstummen Der Götter 07:10
03. Instrumental I 01:45
04. Hagalaz, Das Kalte Kreuz 06:11
05. Wilder Flug 07:22
06. Instrumental II 02:00
07. Im Flehen Aschener Zungen 12:52
******************************
Total playing time: 44:28



Technical info
(IMG:https://metalarea.org/images/spectrogram/2018_Feb/d1b17781281bf73f208ac047adfa74fa.png)
Input File: 01. Mysterium Tremendum.mp3
Channels : 2
Sample Rate : 44100
Precision : 16-bit
Duration : 00:07:05.65 = 18771253 samples = 31923.9 CDDA sectors
File Size : 6.81M
Bit Rate : 128k
Sample Encoding: MPEG audio (layer I, II or III)
Comments :
Title=Mysterium Tremendum
Artist=Nahtrunar
Album=Mysterium Tremendum
Tracknumber=01
Year=2018
Genre=Black Metal



Register


Go to the top of the page
  Insert nick Quick quote
+Quote Post
 
Start new topic
Replies (1 - 1)
post Feb 10 2018, 18:22:48
Post #2

Самый Тихий Час
**************
Group: Металариец
Posts: 5,661
Releases: 0
On Forums: 9 years 5 months
Thanks: 2499 time(s)
Unknown


а где АААА?
Go to the top of the page
  Insert nick Quick quote
+Quote Post

Причина закрытия (Хогги 11-02-2018):
Closed TopicStart new topic
1 User(s) are reading this topic (1 Guests and 0 Anonymous Users)
0 Members:

 



- Lo-Fi Version Support form
Copyrights and abuse reports form
Time is now: 20th April 2019 - 21:12:17