Help - Search - Members - Calendar
Full Version: Nahtrunar - Mysterium Tremendum (2018)
Metal Area - Extreme Music Portal > Releases Area / Релизы > Archive > Low Bitrate Archive (read only)
demenn


*Artist: Nahtrunar
*Album: Mysterium Tremendum
*Year: 2018
*Genre: Black Metal
*Country: Austria
*Format: mp3@CBR128kbps
*Size: 41MB

Tracklist:
01. Mysterium Tremendum 07:05
02. Das Verstummen Der Götter 07:10
03. Instrumental I 01:45
04. Hagalaz, Das Kalte Kreuz 06:11
05. Wilder Flug 07:22
06. Instrumental II 02:00
07. Im Flehen Aschener Zungen 12:52
******************************
Total playing time: 44:28



Technical info

Input File: 01. Mysterium Tremendum.mp3
Channels : 2
Sample Rate : 44100
Precision : 16-bit
Duration : 00:07:05.65 = 18771253 samples = 31923.9 CDDA sectors
File Size : 6.81M
Bit Rate : 128k
Sample Encoding: MPEG audio (layer I, II or III)
Comments :
Title=Mysterium Tremendum
Artist=Nahtrunar
Album=Mysterium Tremendum
Tracknumber=01
Year=2018
Genre=Black Metal



[ Hidden Text ]
Chasm
а где АААА?
This is a "lo-fi" version of our main content. To view the full version with more information, formatting and images, please click here.
Invision Power Board © 2001-2019 Invision Power Services, Inc.