Welcome Guest ( Log In | Register )

> Red Soil - Nemesis (2018), Modern Melodic Death Metal
post Apr 16 2018, 01:31:33
Post #1

Правь статус, ####!111
**************
Group: Металариец
Posts: 14,343
Releases: 9939
From: Г.Харьков
On Forums: 6 years 4 months
Thanks: 163073 time(s)
Unknown


(IMG:http://metalarea.org/images/audiocovers/2018_Apr/acov_tid304720_thumb.jpg)

*Artist: Red Soil
*Album: Nemesis
*Year: 2018
*Genre: Modern Melodic Death Metal
*Country: Spain (IMG:http://metalarea.org/forum/style_images/flags/Spain.png)
*Format: mp3@CBR320kbps
*Size: 67MB

Tracklist:
01. Chaos
02. The Stolen Paradise
03. Overrated
04. Age of Rebelion
05. Heroes
06. Shattered Light
07. My Name, my Enemy
08. The Story About Faith
******************************
Total playing time: 31:30



Extended info
Néstor Balaguer (vocals)
·Fabio Doppioni (rhythm guitar)
·Aitor Yerbes (lead guitar)
·Álvaro Pros (bass)
·Guillem Chesa (drums)
·Néstor Viciano (keys&Fx's)



Technical info
(IMG:http://metalarea.org/images/spectrogram/2018_Apr/34122733b3b2ff7b596484cd507cfae1.png)
Input File: 03 Overrated.mp3
Channels : 2
Sample Rate : 44100
Precision : 16-bit
Duration : 00:04:22.40 = 11571884 samples = 19680.1 CDDA sectors
File Size : 10.6M
Bit Rate : 322k
Sample Encoding: MPEG audio (layer I, II or III)
Comments :
Title=Overrated
Artist=Red Soil
Album=Nemesis
Tracknumber=3/8
Year=2018
Genre=Metal
Discnumber=1/1



Register


Go to the top of the page
  Insert nick Quick quote
+Quote Post
 
Start new topic
Replies (1 - 5)
post Apr 16 2018, 02:20:48
Post #2

Правь статус, ####!111
**************
Group: Металариец
Posts: 14,343
Releases: 9939
From: Г.Харьков
On Forums: 6 years 4 months
Thanks: 163073 time(s)
Unknown


Register


Thanks:
Go to the top of the page
  Insert nick Quick quote
+Quote Post
post Apr 16 2018, 07:48:31
Post #3

MDM-Thrash Metal
**************
Group: Металариец
Posts: 7,081
Releases: 412
From: Одесса
On Forums: 11 years 1 month
Thanks: 13460 time(s)
Ukraine


Капец какой противный оруще-кричащий вокал (IMG:style_emoticons/default/fear.gif)
Go to the top of the page
  Insert nick Quick quote
+Quote Post
post Apr 16 2018, 13:01:12
Post #4

тебе 27, а ты все реверсами балуешься
**********
Group: Металариец
Posts: 1,385
Releases: 4
From: SPB
On Forums: 10 years 1 month
Thanks: 353 time(s)
Russian Federation


ЦИТАТА(Andrew @ Apr 16 2018, 09:48:31) *
Капец какой противный оруще-кричащий вокал (IMG:style_emoticons/default/fear.gif)


Я держался пару песен - музыка тащит, но вокал кнеш долго не могу слушать (IMG:style_emoticons/default/smile2.gif)
Go to the top of the page
  Insert nick Quick quote
+Quote Post
post Apr 16 2018, 13:12:55
Post #5
BAN
Banned till
Nov 2 2018, 12:28:53



Тут нужен Мимитрий.
Go to the top of the page
  Insert nick Quick quote
+Quote Post
post Apr 16 2018, 18:09:53
Post #6

Ищущий
****
Group: Металариец
Posts: 391
Releases: 0
From: Украина
On Forums: 10 years 2 months
Thanks: 13 time(s)
Ukraine


вокал действительно ужасный
Go to the top of the page
  Insert nick Quick quote
+Quote Post

Reply to this topicStart new topic
1 User(s) are reading this topic (1 Guests and 0 Anonymous Users)
0 Members:

 



- Lo-Fi Version Support form
Copyrights and abuse reports form
Time is now: 25th September 2018 - 20:44:18