Help - Search - Members - Calendar
Full Version: Red Soil - Nemesis (2018)
Metal Area - Extreme Music Portal > Releases Area / Релизы > New Releases
Samaritianin


*Artist: Red Soil
*Album: Nemesis
*Year: 2018
*Genre: Modern Melodic Death Metal
*Country: Spain
*Format: mp3@CBR320kbps
*Size: 67MB

Tracklist:
01. Chaos
02. The Stolen Paradise
03. Overrated
04. Age of Rebelion
05. Heroes
06. Shattered Light
07. My Name, my Enemy
08. The Story About Faith
******************************
Total playing time: 31:30



Extended info
Néstor Balaguer (vocals)
·Fabio Doppioni (rhythm guitar)
·Aitor Yerbes (lead guitar)
·Álvaro Pros (bass)
·Guillem Chesa (drums)
·Néstor Viciano (keys&Fx's)



Technical info

Input File: 03 Overrated.mp3
Channels : 2
Sample Rate : 44100
Precision : 16-bit
Duration : 00:04:22.40 = 11571884 samples = 19680.1 CDDA sectors
File Size : 10.6M
Bit Rate : 322k
Sample Encoding: MPEG audio (layer I, II or III)
Comments :
Title=Overrated
Artist=Red Soil
Album=Nemesis
Tracknumber=3/8
Year=2018
Genre=Metal
Discnumber=1/1



[ Hidden Text ]
Samaritianin
[ Hidden Text ]
Andrew
Капец какой противный оруще-кричащий вокал fear.gif
Foneg
ЦИТАТА(Andrew @ Apr 16 2018, 09:48:31) *
Капец какой противный оруще-кричащий вокал fear.gif


Я держался пару песен - музыка тащит, но вокал кнеш долго не могу слушать smile2.gif
6666666
Тут нужен Мимитрий.
fateefffddd
вокал действительно ужасный
This is a "lo-fi" version of our main content. To view the full version with more information, formatting and images, please click here.
Invision Power Board © 2001-2018 Invision Power Services, Inc.