Welcome Guest ( Log In | Register )

 
Reply to this topicStart new topic
> Purgatory - Live...Perversion [demo] (1993), Death Metal
post May 20 2018, 09:42:48
Post #1

Подвал
**************
Group: Металариец
Posts: 12,161
Releases: 6860
From: Far East (Khabarovsk)
On Forums: 9 years 4 months
Thanks: 62610 time(s)
Russian Federation


(IMG:http://metalarea.org/images/audiocovers/2018_May/acov_tid306183_thumb.jpg)

*Artist: Purgatory
*Album: Live...Perversion [demo]
*Year: 1993
*Genre: Death Metal
*Country: Germany (IMG:http://metalarea.org/forum/style_images/flags/Germany.png)
*Format: mp3@CBR192kbps
*Size: 33MB

Tracklist:
1. Moment Of Identify / Process Of Cremation 06:00
2. Children Of Perversion 02:51
3. Lord Of Putrefaction 05:05
4. Masturbation Of Bowels 03:49
5. Dark Reality 03:48
6. Boneyard (Impetigo cover) 02:26
******************************
Total playing time: 23:59


(IMG:http://metalarea.org/images/myspace.png)


Extended info
Recorded live at Grosshennersdorf, Germany in 18.03.1993.


Technical info
(IMG:http://metalarea.org/images/spectrogram/2018_May/ae02c8056a731023bda60845afd47ef5.png)
Input File: 06-Boneyard.mp3
Channels : 2
Sample Rate : 44100
Precision : 16-bit
Duration : 00:02:26.46 = 6458710 samples = 10984.2 CDDA sectors
File Size : 3.52M
Bit Rate : 192k
Sample Encoding: MPEG audio (layer I, II or III)
Comments :
Title=Boneyard
Artist=Purgatory
Album=Live... Perversion
Tracknumber=06
Year=1993
Genre=Death Metal



Register


Go to the top of the page
  Insert nick Quick quote
+Quote Post

Reply to this topicStart new topic
1 User(s) are reading this topic (1 Guests and 0 Anonymous Users)
0 Members:

 



- Lo-Fi Version Support form
Copyrights and abuse reports form
Time is now: 20th June 2018 - 14:01:31