Welcome Guest ( Log In | Register )

> Antilife - Silence Under The Sun (2019), Depressive Black Metal
post Jul 5 2019, 11:31:07
Post #1

Маньяк
**********
Group: Металариец
Posts: 1,005
Releases: 842
From: Новороссийск
On Forums: 8 years 5 months
Thanks: 14978 time(s)
Russian Federation


(IMG:https://metalarea.org/images/audiocovers/2019_Jul/acov_tid323965_thumb.jpg)

*Artist: Antilife
*Album: Silence Under The Sun
*Year: 2019
*Genre: Depressive Black Metal
*Country: France (IMG:https://metalarea.org/forum/style_images/flags/France.png)
*Format: mp3@CBR320kbps
*Size: 92MB

Tracklist:
01. Don't Fear The Devil (Intro) 01:25
02. L'Hymne A La Mort 06:00
03. Tbilissi 05:31
04. Don't Fear Suicide 04:53
05. Le Sang Bouilli 05:26
06. Land Of My Demise 05:19
07. Silence Under The Sun 04:58
08. Satan's Embrace 06:24
******************************
Total playing time: 40:00




Technical info
(IMG:https://metalarea.org/images/spectrogram/2019_Jul/8dfb5c9010586b969dc5403de045ea32.png)
Input File: 02 L\'Hymne A La Mort.mp3
Channels : 2
Sample Rate : 44100
Precision : 16-bit
Duration : 00:06:00.09 = 15880145 samples = 27007 CDDA sectors
File Size : 14.4M
Bit Rate : 320k
Sample Encoding: MPEG audio (layer I, II or III)
Comments :
Title=L'Hymne A La Mort
Artist=Antilife
Album=Silence Under The Sun
Tracknumber=02
Year=2019
Genre=Black Metal



Register


Go to the top of the page
  Insert nick Quick quote
+Quote Post
 
Start new topic
Replies (1 - 5)
post Jul 5 2019, 20:48:40
Post #2

Group: Подсевший
Posts: 46
Releases: 0
On Forums: 4 months 2 weeks
Thanks: 9 time(s)
Russian Federation


Пронзающие уши свинячьи визги вокал напоминает Наттрамна, ещё слышен Lifelover
В Tbilissi довольно приятное "На-на-на-на-на-наа"....
Обложка могла обойтись и без этой скудной рамки
Понравились треки 03, 05, 06, 08.
Лучше бы 07 был инструменталом, дабы подходить под название
Go to the top of the page
  Insert nick Quick quote
+Quote Post
post Jul 5 2019, 22:51:16
Post #3

Пять Литров
*****
Group: Металариец
Posts: 469
Releases: 0
From: Град Московский
On Forums: 11 years 9 months
Thanks: 117 time(s)
Russian Federation


Первый более удачный был! (2015)
Go to the top of the page
  Insert nick Quick quote
+Quote Post
post Jul 13 2019, 10:32:31
Post #4

Правь статус, ####!111
**************
Group: Металариец
Posts: 2,681
Releases: 8
From: Dnipro
On Forums: 11 years 3 months
Thanks: 834 time(s)
Ukraine


Вполне достойно и качественно.
Go to the top of the page
  Insert nick Quick quote
+Quote Post
post Jul 13 2019, 21:59:43
Post #5

Правь статус, ####!111
**************
Group: Металариец
Posts: 4,129
Releases: 0
From: Одесса
On Forums: 11 years 7 months
Thanks: 2358 time(s)
Unknown


Go to the top of the page
  Insert nick Quick quote
+Quote Post
post Jul 18 2019, 22:25:31
Post #6

ME[ta]LLOMAN
**************
Group: Металариец
Posts: 4,920
Releases: 3
From: Avdeyevka
On Forums: 13 years 6 months
Thanks: 1874 time(s)
Honduras


музыка - да, вокал - нет..
Go to the top of the page
  Insert nick Quick quote
+Quote Post

Reply to this topicStart new topic
1 User(s) are reading this topic (1 Guests and 0 Anonymous Users)
0 Members:

 



- Lo-Fi Version Support form
Copyrights and abuse reports form
Time is now: 21st October 2019 - 08:08:07