Welcome Guest ( Log In | Register )

> Releases Upload / Добавление релизов

Добавить релиз тут / Click here to add release
Рекомендованные обменники / Recommended file shares

> Autophagy - Demo [demo] (2018), Death Metal
post Jul 12 2019, 02:12:01
Post #1

Семь Литров
*******
Group: Металариец
Posts: 778
Releases: 16
On Forums: 9 years 10 months
Thanks: 1653 time(s)
Russian Federation


(IMG:http://metalarea.org/images/audiocovers/2019_Jul/acov_tid324283_thumb.jpg)

*Artist: Autophagy
*Album: Demo [demo]
*Year: 2018
*Genre: Death Metal
*Country: United States (IMG:http://metalarea.org/forum/style_images/flags/United%20States.png)
*Format: mp3@CBR320kbps
*Size: 34MB

Tracklist:
1. Intro / Lure of the Labyrinth 04:56
2. Charnel Hall 03:57
3. Beneath the Moss, Between the Roots 03:17
4. Supposed to Rot (Nihilist cover) 01:58
******************************
Total playing time: 14:08



Technical info
(IMG:http://metalarea.org/images/spectrogram/2019_Jul/0913cdc7fc40e786064c1637e642a7af.png)
Input File: Autophagy - demo - 02 Charnel Hall.mp3
Channels : 2
Sample Rate : 44100
Precision : 16-bit
Duration : 00:03:57.07 = 10454963 samples = 17780.5 CDDA sectors
File Size : 9.65M
Bit Rate : 326k
Sample Encoding: MPEG audio (layer I, II or III)
Comments :
Title=Charnel Hall
Artist=Autophagy
Album=demo
Tracknumber=2
Year=2018



Register


Go to the top of the page
  Insert nick Quick quote
+Quote Post
 
Start new topic
Replies (1 - 1)
post Jul 14 2019, 08:39:03
Post #2

Шесть Литров
******
Group: Металариец
Posts: 522
Releases: 0
From: South Of Heaven
On Forums: 11 years 11 months
Thanks: 201 time(s)
Ukraine


Аутофагия сохраняет здоровье и продлевает жизнь ! (IMG:style_emoticons/default/genius.gif)
Сабж "зашёл" ,хорошая демка,если так и далее пойдут, то будет гуд !! (IMG:style_emoticons/default/metaler.gif) качевсвенный олдскул !
Релизёру (IMG:style_emoticons/default/9.gif) (IMG:style_emoticons/default/9.gif)


Thanks:
Go to the top of the page
  Insert nick Quick quote
+Quote Post

Reply to this topicStart new topic
2 User(s) are reading this topic (2 Guests and 0 Anonymous Users)
0 Members:

 



- Lo-Fi Version Support form
Copyrights and abuse reports form
Time is now: 22nd July 2019 - 07:30:25