Welcome Guest ( Log In | Register )

> Releases Upload / Добавление релизов

Добавить релиз тут / Click here to add release
Рекомендованные обменники / Recommended file shares

> Arrowhead - Coven Of The Snake (2019), Stoner/Doom Metal/Psychedelic Rock
post Jul 12 2019, 10:09:55
Post #1

Правь статус, ####!111
**************
Group: Металариец
Posts: 42,462
Releases: 644
On Forums: 10 years 2 months
Thanks: 33336 time(s)
Russian Federation


(IMG:http://metalarea.org/images/audiocovers/2019_Jul/acov_tid324293_thumb.jpg)

*Artist: Arrowhead
*Album: Coven Of The Snake
*Year: 2019
*Genre: Stoner/Doom Metal/Psychedelic Rock
*Country: Australia (IMG:http://metalarea.org/forum/style_images/flags/Australia.png)
*Format: mp3@CBR320kbps
*Size: 99MB

Tracklist:
1. Coven Of The Snake
2. All Seeing Eye
3. Ceremony Of The Skull
4. Ghost Ship
5. Root Of Evil
6. Dopanaught
7. March Of The Reptiles
8. Golden Thunderhawk
******************************
Total playing time: 39:46



Technical info
(IMG:http://metalarea.org/images/spectrogram/2019_Jul/2652a5d9aedbadb27c701226269640a1.png)
Input File: 01. Coven Of The Snake.mp3
Channels : 2
Sample Rate : 44100
Precision : 16-bit
Duration : 00:00:00.28 = 12304 samples = 20.9252 CDDA sectors
File Size : 12.3M
Bit Rate : 352M
Sample Encoding: MPEG audio (layer I, II or III)
Comments :
Title=Coven Of The Snake
Artist=Arrowhead
Album=Coven Of The Snake
Tracknumber=1/8
Year=2019
Genre=Rock
Discnumber=1/1



Register


Go to the top of the page
  Insert nick Quick quote
+Quote Post
 
Start new topic
Replies (1 - 1)
post Jul 12 2019, 18:20:28
Post #2

Правь статус, ####!111
**************
Group: Металариец
Posts: 42,462
Releases: 644
On Forums: 10 years 2 months
Thanks: 33336 time(s)
Russian Federation


Жирнющщий стафф.
Go to the top of the page
  Insert nick Quick quote
+Quote Post

Reply to this topicStart new topic
1 User(s) are reading this topic (1 Guests and 0 Anonymous Users)
0 Members:

 



- Lo-Fi Version Support form
Copyrights and abuse reports form
Time is now: 24th August 2019 - 14:53:52