Welcome Guest ( Log In | Register )

> Releases Upload / Добавление релизов

Добавить релиз тут / Click here to add release
Рекомендованные обменники / Recommended file shares

> Vintlechkeit - Vi Drømmer Om Stjernene Hvor Gudene Sovnet .​.​. [demo] (2019), Atmospheric Raw Ambient Black Metal
post Jul 12 2019, 11:26:01
Post #1

Четыре Литра
****
Group: Завсегдатай
Posts: 300
Releases: 20
From: Михайловск
On Forums: 9 years 6 months
Thanks: 467 time(s)
Russian Federation


(IMG:http://metalarea.org/images/audiocovers/2019_Jul/acov_tid324298_thumb.jpg)

*Artist: Vintlechkeit
*Album: Vi Drømmer Om Stjernene Hvor Gudene Sovnet .​.​. [demo]
*Year: 2019
*Genre: Atmospheric Raw Ambient Black Metal
*Country: Norway (IMG:http://metalarea.org/forum/style_images/flags/Norway.png)
*Format: mp3@CBR320kbps
*Size: 70MB

Tracklist:
1. Storm Kommer...
2. Nær stjernene...
3. Drømmer...
******************************
Total playing time: 30:46



Technical info
(IMG:http://metalarea.org/images/spectrogram/2019_Jul/f2e8c964324d9c556feb98f14f6b8206.png)
Input File: 01 Storm kommer.mp3
Channels : 2
Sample Rate : 44100
Precision : 16-bit
Duration : 00:11:45.50 = 31112726 samples = 52912.8 CDDA sectors
File Size : 28.2M
Bit Rate : 320k
Sample Encoding: MPEG audio (layer I, II or III)
Comments :
Title=Storm Kommer...
Artist=Vintlechkeit
Album=Vi drømmer om stjernene hvor gudene sovnet ... (demo)
Tracknumber=1
Year=2019
Genre=Atmospheric Raw Black Metal



Register


Go to the top of the page
  Insert nick Quick quote
+Quote Post
 
Start new topic
Replies (1 - 1)
post Jul 22 2019, 09:27:33
Post #2

Два Литра
**
Group: Завсегдатай
Posts: 137
Releases: 0
On Forums: 2 months 2 weeks
Thanks: 47 time(s)
Unknown


От релиза к релизу становятся все более raw & raw
Go to the top of the page
  Insert nick Quick quote
+Quote Post

Reply to this topicStart new topic
1 User(s) are reading this topic (1 Guests and 0 Anonymous Users)
0 Members:

 



- Lo-Fi Version Support form
Copyrights and abuse reports form
Time is now: 20th August 2019 - 09:02:24