Welcome Guest ( Log In | Register )

> Releases Upload / Добавление релизов

Добавить релиз тут / Click here to add release
Рекомендованные обменники / Recommended file shares

> Tom Gekas - Blasphemy (2019), Depressive Black Metal
post Jul 12 2019, 13:56:05
Post #1

Serial Uploader
Group Icon
Group: V.I.P
Posts: 35,814
Releases: 34022
From: Lithuania
On Forums: 11 years 2 months
Thanks: 393154 time(s)
Lithuania


(IMG:https://metalarea.org/images/audiocovers/2019_Jul/acov_tid324304_thumb.jpg)

*Artist: Tom Gekas
*Album: Blasphemy
*Year: 2019
*Genre: Depressive Black Metal
*Country: Germany (IMG:https://metalarea.org/forum/style_images/flags/Germany.png)
*Format: mp3@CBR320kbps
*Size: 86MB

Tracklist:
01. Astaroth is Coming 04:01
02. Blasphemy 04:46
03. Religion = War 03:36
04. Cruzifix 03:51
05. Satanist 03:49
06. Depression is a Demon, Pt. 1 11:12
07. Depression is a Demon, Pt. 2 05:46
******************************
Total playing time: 37:01



Technical info
(IMG:https://metalarea.org/images/spectrogram/2019_Jul/786b227894ef94bd745db6aed7900724.png)
Input File: 02. Blasphemy.mp3
Channels : 2
Sample Rate : 44100
Precision : 16-bit
Duration : 00:04:46.97 = 12655553 samples = 21523 CDDA sectors
File Size : 11.6M
Bit Rate : 325k
Sample Encoding: MPEG audio (layer I, II or III)
Comments :
Title=Blasphemy
Artist=Tom Gekas
Album=Blasphemy
Tracknumber=2/7
Year=2019



Register


Go to the top of the page
  Insert nick Quick quote
+Quote Post
 
Start new topic
Replies (1 - 3)
post Jul 12 2019, 17:45:43
Post #2

ZEHTAN!
******
Group: Металариец
Posts: 575
Releases: 28
From: Germany
On Forums: 13 years 5 months
Thanks: 955 time(s)
Germany


"Depressive Suicidal Black Metal"
Go to the top of the page
  Insert nick Quick quote
+Quote Post
post Jul 13 2019, 07:37:37
Post #3

Правь статус, ####!111
**************
Group: Металариец
Posts: 2,552
Releases: 7
From: Dnipro
On Forums: 11 years 1 month
Thanks: 747 time(s)
Ukraine


Стиль: Symphonic Black Metal (IMG:style_emoticons/default/25.gif) (IMG:style_emoticons/default/25.gif) (IMG:style_emoticons/default/25.gif) Не-а!!!
Go to the top of the page
  Insert nick Quick quote
+Quote Post
post Jul 13 2019, 21:19:33
Post #4

Литр
*
Group: Подсевший
Posts: 65
Releases: 0
From: Лыткарино
On Forums: 3 months 1 week
Thanks: 18 time(s)
Russian Federation


Идиотизм какой-то, где они ещё такого левого вокалёра нарыли (IMG:style_emoticons/default/15.gif)
Go to the top of the page
  Insert nick Quick quote
+Quote Post

Reply to this topicStart new topic
2 User(s) are reading this topic (2 Guests and 0 Anonymous Users)
0 Members:

 



- Lo-Fi Version Support form
Copyrights and abuse reports form
Time is now: 19th August 2019 - 00:15:08