Welcome Guest ( Log In | Register )

 
Reply to this topicStart new topic
> Devil To Pay - Forever, Never Or Whenever (2019), Sludge/Southern/Heavy Metal
post Nov 8 2019, 17:26:22
Post #1

Правь статус, ####!111
**************
Group: Металариец
Posts: 2,802
Releases: 2506
From: Одесса
On Forums: 11 years 11 months
Thanks: 23849 time(s)
Ukraine


(IMG:http://metalarea.org/images/audiocovers/2019_Nov/acov_tid330053_thumb.jpg)

*Artist: Devil To Pay
*Album: Forever, Never Or Whenever
*Year: 2019
*Genre: Sludge/Southern/Heavy Metal
*Country: United States (IMG:http://metalarea.org/forum/style_images/flags/United%20States.png)
*Format: mp3@CBR320kbps
*Size: 107MB

Tracklist:
1.Heave Ho
2.The Devil's Barking Up Your Tree
3.The Cautionary Tale of Yen Sid
4.Get On Down
5.Tap Dancing on Your Grave
6.Imminent Demise
7.37 Trillion
8.Light Sentence
9.The Pendulum
10.Anti-Gravity Depravity
******************************
Total playing time: 44:45



Extended info
Line - up:

Matt Stokes - Bass
Chad Prifogle - Drums
Rob Hough - Guitars (ex-Legion, ex-Signs of Decay)
Steve Janiak - Vocals, Guitars (Apostle of Solitude, The Gates of Slumber)

(IMG:https://www.metal-archives.com/images/2/2/6/0/22607_photo.png?2950)


Technical info
(IMG:http://metalarea.org/images/spectrogram/2019_Nov/3570f9d15654595ff8699e544f706131.png)
Input File: 08. Light Sentence.mp3
Channels : 2
Sample Rate : 44100
Precision : 16-bit
Duration : 00:03:57.42 = 10470090 samples = 17806.3 CDDA sectors
File Size : 9.54M
Bit Rate : 321k
Sample Encoding: MPEG audio (layer I, II or III)
Comments :
Title=Light Sentence
Artist=Devil To Pay
Album=Forever, Never Or Whenever
Tracknumber=8
Year=2019
Genre=Sludge/Southern/Heavy Metal



Register


Go to the top of the page
  Insert nick Quick quote
+Quote Post

Reply to this topicStart new topic
1 User(s) are reading this topic (1 Guests and 0 Anonymous Users)
0 Members:

 



- Lo-Fi Version Support form
Copyrights and abuse reports form
Time is now: 1st June 2020 - 09:43:02